(Classical) Ludwig van Beethoven - Piano Sonatas Op.2 No.2, Op.10 No.1, Op.78, Op.110 - Angela Hewitt - 2015, FLAC (image+.cue) lossless


 

[Цитировать]

Ludwig van Beethoven - Piano Sonatas Op.2 No.2, Op.10 No.1, Op.78, Op.110 - Angela Hewitt
Жанр: Classical
Страна-производитель диска: UK
Год издания диска: 2015
Издатель (лейбл): Hyperion
Номер по каталогу: CDA68086
Дата записи: 2014
Аудиокодек: FLAC
Тип рипа: image+.cue
Битрейт аудио: lossless
Продолжительность: 76:08
Источник: собственный рип
Наличие сканов в содержимом раздачи: да
Треклист:
Ludwig van Beethoven
[1]-[4] Piano Sonata No.2 in A major, Op.2 No.2
[5]-[7] Piano Sonata No.5 in C minor, Op.10 No.1
[8]-[9] Piano Sonata No.24 in F sharp major, Op.78
[10]-[12] Piano Sonata No.31 in A flat major, Op.110
Исполнители:
Angela Hewitt piano

Лог создания рипа

Exact Audio Copy V1.1 from 23. June 2015
EAC extraction logfile from 14. November 2015, 22:43
Angela Hewitt / Beethoven - Piano Sonatas Op.2 No.2, Op.10 No.1, Op.78, Op.110
Used drive : HL-DT-STDVDRAM GU70N Adapter: 1 ID: 0
Read mode : SecureUtilize accurate stream : YesDefeat audio cache : YesMake use of C2 pointers : No
Read offset correction : 48Overread into Lead-In and Lead-Out : NoFill up missing offset samples with silence : YesDelete leading and trailing silent blocks : NoNull samples used in CRC calculations : YesUsed interface : Native Win32 interface for Win NT & 2000
Used output format : User Defined EncoderSelected bitrate : 128 kBit/sQuality : HighAdd ID3 tag : NoCommand line compressor : C:\Program Files (x86)\Exact Audio Copy\Flac\flac.exeAdditional command line options : -V -8 -T "Date=%year%" -T "Genre=%genre%" %source%
TOC of the extracted CD
Track | Start | Length | Start sector | End sector --------------------------------------------------------- 1 | 0:00.00 | 7:23.24 | 0 | 33248 2 | 7:23.24 | 6:51.74 | 33249 | 64147 3 | 14:15.23 | 3:58.05 | 64148 | 82002 4 | 18:13.28 | 6:55.18 | 82003 | 113145 5 | 25:08.46 | 5:45.04 | 113146 | 139024 6 | 30:53.50 | 8:51.36 | 139025 | 178885 7 | 39:45.11 | 4:48.29 | 178886 | 200514 8 | 44:33.40 | 8:03.70 | 200515 | 236809 9 | 52:37.35 | 3:26.09 | 236810 | 252268 10 | 56:03.44 | 6:50.38 | 252269 | 283056 11 | 62:54.07 | 2:22.62 | 283057 | 293768 12 | 65:16.69 | 10:51.37 | 293769 | 342630
Range status and errors
Selected range
Filename C:\temp\CDA68086 - Beethoven - Piano Sonatas Op.2 No.2, Op.10 No.1, Op.78, Op.110\Beethoven - Piano Sonatas Op.2 No.2, Op.10 No.1, Op.78, Op.110.wav
Peak level 95.5 % Extraction speed 2.3 X Range quality 100.0 % Test CRC 11520C45 Copy CRC 11520C45 Copy OK
No errors occurred
AccurateRip summary
Track 1 accurately ripped (confidence 3) [0C35F6CD] (AR v2)Track 2 accurately ripped (confidence 3) [ECB09CD4] (AR v2)Track 3 accurately ripped (confidence 3) [11B6FFDD] (AR v2)Track 4 accurately ripped (confidence 3) [8A79E9F4] (AR v2)Track 5 accurately ripped (confidence 3) [C60F356A] (AR v2)Track 6 accurately ripped (confidence 3) [EC5F7066] (AR v2)Track 7 accurately ripped (confidence 3) [7C6BD078] (AR v2)Track 8 accurately ripped (confidence 3) [43AB9996] (AR v2)Track 9 accurately ripped (confidence 3) [4839D5AD] (AR v2)Track 10 accurately ripped (confidence 3) [5C0C30CF] (AR v2)Track 11 accurately ripped (confidence 3) [8463025D] (AR v2)Track 12 accurately ripped (confidence 3) [DCA22437] (AR v2)
All tracks accurately ripped
End of status report
==== Log checksum 31BCCF5DEB5D55B16E6E9CE08E30DF1721186D24B84DCB6362E5F8CFEC910BBB ====



Показать сообщения:    

Текущее время: 10-Дек 11:57

Часовой пояс: UTC + 3


Вы не можете начинать темы
Вы не можете отвечать на сообщения
Вы не можете редактировать свои сообщения
Вы не можете удалять свои сообщения
Вы не можете голосовать в опросах
Вы не можете прикреплять файлы к сообщениям
Вы не можете скачивать файлы