Кто первый к заднице прильнет / В этой гонке ты проиграл / Race You to the Bottom (Расселл Браун / Russell Brown) [2005, США, фестивальное кино, роуд-муви, мелодрама, WEB-DL 720p] AVO (Антон Алексеев) + Sub Eng + Original Eng


 

[Цитировать]

В этой гонке ты проиграл / Race You to the Bottom
Страна: США
Студия: Simon, The
Жанр: фестивальное кино, роуд-муви, мелодрама, гей тема
Год выпуска: 2005
Продолжительность: 01:13:18
Перевод: Авторский (одноголосый закадровый) Антон Алексеев
Cубтитры: английские
Оригинальная аудиодорожка: английский
Режиссер: Расселл Браун / Russell Brown
В ролях: Эмбер Бенсон / Amber Benson (Maggie), Коул Уильямс / Cole Williams (Nathan), Джереми Леллиотт / Jeremy Lelliott (Nicholas), Джастин Хартли / Justin Hartley (Joe), Джастин Захари / Justin Zachary (Milo) и др.
Описание: Натан и Мэгги — лучшие друзья, и между ними самая настоящая страсть! Оба они молоды, хороши собой, и у обоих есть… бойфренды! Ну, у Мэгги понятно почему, а что не так с Натаном? Все так, вот только он — гей. Однажды Натану заказывают написать статью о путешествии в долину Напа, и он приглашает в это путешествие свою подругу. Во время этого путешествия им предстоит проверить свои чувства и сексуальность, чтобы понять, останутся ли они вместе или пойдут дальше по разным дорогам жизни. Мэгги старается сблизиться с Натаном, но тот не готов к очень уж тесным отношениям с кем бы то ни было. Это интересный фильм, рассказывающий о сложных взаимоотношениях между людьми в современном мире.
II Сэмпл II IMDB II
Доп. информация:
За авторский перевод Антона Алексеева спасибо ralf124c41+
Тип релиза: WEB-DL 720p
Контейнер: MKV
Видео: AVC / 1280x714 / 16:9 / 23.976fps / Bit rate 3951Kbps
Аудио 1: AC3 / 48.0 KHz / 2ch. / 192kbps / rus / avo / Антон Алексеев
Аудио 2: AC3 / 48.0 KHz / 6ch. / 384kbps / eng
Формат субтитров: softsub (SRT)

MediaInfo

Общее
Уникальный идентификатор : 224343778073335329488932435502675584360 (0xA8C70A3DA04A0445A4273588CA30E568)
Полное имя : G:\!!!_torrent\Race.You.to.the.Bottom.2005.WEB-DL.720p_by_vedigo.mkv
Формат : Matroska
Версия формата : Version 4 / Version 2
Размер файла : 2,36 Гбайт
Продолжительность : 1 ч. 13 м.
Общий поток : 4618 Кбит/сек
Название фильма : Race.You.to.the.Bottom.2005.WEB-DL.720p_by_vedigo
Дата кодирования : UTC 2015-10-19 02:30:15
Программа кодирования : mkvmerge v8.5.0 ('Vanishing Act') 64bit
Библиотека кодирования : libebml v1.3.1 + libmatroska v1.4.2
DURATION : 01:09:47.502000000
NUMBER_OF_FRAMES : 1389
NUMBER_OF_BYTES : 41369
_STATISTICS_WRITING_APP : mkvmerge v8.5.0 ('Vanishing Act') 64bit
_STATISTICS_WRITING_DATE_UTC : 2015-10-19 02:30:15
_STATISTICS_TAGS : BPS DURATION NUMBER_OF_FRAMES NUMBER_OF_BYTES
Видео
Идентификатор : 1
Формат : AVC
Формат/Информация : Advanced Video Codec
Профиль формата : High@L3.1
Параметр CABAC формата : Нет
Параметр ReFrames формата : 2 кадра
Идентификатор кодека : V_MPEG4/ISO/AVC
Продолжительность : 1 ч. 13 м.
Битрейт : 3951 Кбит/сек
Ширина : 1280 пикселей
Высота : 714 пикселей
Соотношение сторон : 16:9
Режим частоты кадров : Постоянный
Частота кадров : 23,976 кадра/сек
Цветовое пространство : YUV
Субдискретизация насыщенности : 4:2:0
Битовая глубина : 8 бит
Тип развёртки : Прогрессивная
Бит/(Пиксели*Кадры) : 0.180
Размер потока : 2,02 Гбайт (86%)
Заголовок : Race.You.to.the.Bottom.2005.WEB-DL.720p_by_vedigo
Default : Да
Forced : Нет
Цветовой диапазон : Limited
Основные цвета : BT.709
Характеристики трансфера : BT.709
Коэффициенты матрицы : BT.709
Аудио #1
Идентификатор : 2
Формат : AC-3
Формат/Информация : Audio Coding 3
Расширение режима : CM (complete main)
Параметр Endianness формата : Big
Идентификатор кодека : A_AC3
Продолжительность : 1 ч. 13 м.
Вид битрейта : Постоянный
Битрейт : 192 Кбит/сек
Каналы : 2 канала
Расположение каналов : Front: L R
Частота : 48,0 КГц
Метод сжатия : С потерями
Размер потока : 101 Мбайт (4%)
Заголовок : AVO @ Антон Алексеев
Язык : Russian
Default : Да
Forced : Нет
Аудио #2
Идентификатор : 3
Формат : AC-3
Формат/Информация : Audio Coding 3
Расширение режима : CM (complete main)
Параметр Endianness формата : Big
Идентификатор кодека : A_AC3
Продолжительность : 1 ч. 13 м.
Вид битрейта : Постоянный
Битрейт : 384 Кбит/сек
Каналы : 6 каналов
Расположение каналов : Front: L C R, Side: L R, LFE
Частота : 48,0 КГц
Метод сжатия : С потерями
Размер потока : 201 Мбайт (8%)
Заголовок : original
Язык : English
Default : Нет
Forced : Нет
Текст
Идентификатор : 4
Формат : UTF-8
Идентификатор кодека : S_TEXT/UTF8
Идентификатор кодека/Информация : UTF-8 Plain Text
Заголовок : subtitle eng
Язык : English
Default : Нет
Forced : Нет
Меню
00:00:00.000 : en:Chapter 1
00:09:47.000 : en:Chapter 2
00:19:26.000 : en:Chapter 3
00:32:20.000 : en:Chapter 4
00:43:39.000 : en:Chapter 5
00:56:38.000 : en:Chapter 6
01:07:26.000 : en:Chapter 7
01:09:59.000 : en:Chapter 8

Скриншоты





Показать сообщения:    

Текущее время: 06-Дек 15:11

Часовой пояс: UTC + 3


Вы не можете начинать темы
Вы не можете отвечать на сообщения
Вы не можете редактировать свои сообщения
Вы не можете удалять свои сообщения
Вы не можете голосовать в опросах
Вы не можете прикреплять файлы к сообщениям
Вы не можете скачивать файлы