Фотоувеличение / Blowup / Blow-Up (Микеланджело Антониони / Michelangelo Antonioni) [1966, Великобритания, Италия, США, Триллер, Драма, Детектив, DVD9 (Custom)] 3х DVO + VO + Sub En, Fra, Ita, Deu, Esp, Ned, Ara, Rom, Rus (3 вида)


Статистика раздачи [Обновить пиров]
Размер:  5.34 GB   |    Зарегистрирован:  1 год   |    Скачан:  0 раз

Полного источника не было: Никогда

 
   
 
 
 

[Цитировать]

Фотоувеличение / Blowup / Blow-Up«Antonioni's camera never flinches. At love without meaning. At murder without guilt. At the dazzle and madness of youth today»
Страна:Великобритания, Италия, США
Студия:Bridge Films, Carlo Ponti Production, Metro-Goldwyn-Mayer (MGM).
Жанр:Триллер, Драма, ДетективГод выпуска:1966
Продолжительность:01:46:39Перевод 1: Профессиональный (двухголосый закадровый) Film PrestigeПеревод 2: Профессиональный (двухголосый закадровый) Some Wax
Перевод 3: Профессиональный (двухголосый закадровый)
Перевод 4: Одноголосый закадровый Алексей Матвеев (Doctor Joker)
Cубтитры:Английские (2 вида), Французские, Итальянские (2 вида), Немецкие, Испанские, Голландские, Арабские, Румынские, Русские(3 вида)
Оригинальная аудиодорожка:Английский
Премьера (мир):18.12.1966
Режиссер:Микеланджело Антониони / Michelangelo AntonioniВ ролях:Ванесса Редгрейв — Джейн
Сара Майлз — Патриция
Дэвид Хеммингс — Томас, фотограф
Джон Касл — Билл
Джейн Биркин — блондинка
Джиллиан Хиллс — брюнетка
Питер Боулз — Рон
Верушка — Верушка
Джулиан Шагрин — мим
Клод Шагрин — мим
Описание:Главный герой — известный, талантливый молодой фотограф, прототипом которого был то ли Берт Штерн, то ли Дэвид Бейли, что скорее.
Однажды, работая в городском парке, он случайно снимает заинтересовавшую его странную пару. А дальше… через вроде бы романтическое просвечивает вроде бы криминальное… События разворачиваются, ничего не проясняя… На сильно увеличенных кадрах видится то, что простой взгляд не ловит… Или все это только кажется…

Доп. информация:Исходник найден в сети.Звук и субтитры взяты из раздачи cedr-http://teatrix.ru/viewtopic.php?t=7040.Удалена аудио дорожка с комментариями Peter Brunette.Реавторинг Нордер.Огромное Спасибо Всем, без чьей помощи этот релиз не состоялся бы!Сценарий:Микеланджело Антониони, Тонино Гуэрра, Эдвард БондПродюсер:Карло Понти, Пьер РувОператор:Карло Ди ПальмаКомпозитор:Херби ХэнкокХудожник:Эсшетон Гортон, Жослин РикардсМонтаж:Фрэнк Кларк

Знаете ли вы, что

Награды и номинации


Рецензия

Софт

PGCDemux (извлечение).
BeSweet, Sony Vegas 9 (звук).
DVD-lab PRO 2, Subtitle Workshop (субтитры).
MuxMan (сборка). DvdReMakePro (финал).

Бонусы

Трейлеры.
Меню:Английский, статичное, озвученное.Сэмпл:https://www.sendspace.com/file/3ximrfТип релиза:DVD9 (Custom)
Контейнер:DVD-Video
Видео:PAL 16:9 (720x576) VBR, Auto Letterboxed, 5558 Кбит/сек, 25,000 кадров/секАудио 1:Английский:AC3, 1 ch, 48.0 KHz, 192 Кбит/сек / (Оригинал)Аудио 2:Французский:AC3, 1 ch, 48.0 KHz, 192 Кбит/секАудио 3:Итальянский:AC3, 1 ch, 48.0 KHz, 192 Кбит/секАудио 4:Русский:AC3, 2 ch, 48.0 KHz, 192 Кбит/сек / Профессиональный (двухголосый закадровый) - Film PrestigeАудио 5:Русский:AC3, 2 ch, 48.0 KHz, 192 Кбит/сек / Профессиональный (двухголосый закадровый) - Some WaxАудио 6:Русский:AC3, 2 ch, 48.0 KHz, 192 Кбит/сек / Профессиональный (двухголосый закадровый)Аудио 7:Русский:AC3, 2 ch, 48.0 KHz, 192 Кбит/сек / Одноголосый закадровый Алексей Матвеев (Doctor Joker)Формат субтитров:prerendered (DVD/IDX+SUB)

Dvd Info

Title: W(media)
Size: 5.34 Gb ( 5 601 170 KBytes ) - DVD-9
Enabled regions: 1, 2, 3, 4, 5, 6, 7, 8
VTS_01 :
Play Length: 01:46:39+00:00:12+00:01:00
Video: PAL 16:9 (720x576) VBR, Auto Letterboxed
Audio:
English (Dolby AC3, 1 ch)
Francais (Dolby AC3, 1 ch)
Italiano (Dolby AC3, 1 ch)
Russian (Dolby AC3, 2 ch)
Russian (Dolby AC3, 2 ch)
Russian (Dolby AC3, 2 ch)
Russian (Dolby AC3, 2 ch)
Subtitles:
English
Francais
Italiano
Deutsch
Espanol
Nederlands
Arabic
Romanian
English
Italiano
Russian
Russian
Russian
VTS_02 :
Play Length: 00:02:09
Video: PAL 4:3 (720x576) VBR
Audio:
English (Dolby AC3, 6 ch)
Subtitles:
English
Francais
Italiano
Deutsch
Espanol
Nederlands
Arabic
Romanian
English
Italiano

Mediainfo

Общее
Полное имя : F:\Blow-Up DVD-9_Custom\VIDEO_TS\VTS_01_1.VOB
Формат : MPEG-PS
Размер файла : 1024 Мбайт
Продолжительность : 20 м.
Режим общего битрейта : Переменный
Общий поток : 7042 Кбит/сек
Видео
Идентификатор : 224 (0xE0)
Формат : MPEG Video
Версия формата : Version 2
Профиль формата : Main@Main
Параметр BVOP формата : Да
Параметр матрицы формата : По умолчанию
Параметр GOP формата : M=3, N=15
Структура изображения : Frame
Продолжительность : 20 м.
Вид битрейта : Переменный
Битрейт : 5558 Кбит/сек
Максимальный битрейт : 7500 Кбит/сек
Ширина : 720 пикселей
Высота : 576 пикселей
Соотношение сторон : 16:9
Частота кадров : 25,000 кадров/сек
Стандарт вещания : PAL
Цветовое пространство : YUV
Субдискретизация насыщенности : 4:2:0
Битовая глубина : 8 бит
Тип развёртки : Чересстрочная
Порядок развёртки : Верхнее поле первое
Метод сжатия : С потерями
Бит/(Пиксели*Кадры) : 0.536
Временной код первого кадра : 00:59:58:00
Оригинал временного кода : Group of pictures header
GOP, открыто/закрыто : Открыто
GOP, открыто/закрыто на первом кадре : Закрыто
Размер потока : 808 Мбайт (79%)
Аудио #1
Идентификатор : 189 (0xBD)-128 (0x80)
Формат : AC-3
Формат/Информация : Audio Coding 3
Расширение режима : CM (complete main)
Параметр Endianness формата : Big
Режим смешивания : DVD-Video
Продолжительность : 20 м.
Вид битрейта : Постоянный
Битрейт : 192 Кбит/сек
Каналы : 1 канал
Расположение каналов : Front: C
Частота : 48,0 КГц
Метод сжатия : С потерями
Размер потока : 27,9 Мбайт (3%)
Аудио #2
Идентификатор : 189 (0xBD)-129 (0x81)
Формат : AC-3
Формат/Информация : Audio Coding 3
Расширение режима : CM (complete main)
Параметр Endianness формата : Big
Режим смешивания : DVD-Video
Продолжительность : 20 м.
Вид битрейта : Постоянный
Битрейт : 192 Кбит/сек
Каналы : 1 канал
Расположение каналов : Front: C
Частота : 48,0 КГц
Метод сжатия : С потерями
Размер потока : 27,9 Мбайт (3%)
Аудио #3
Идентификатор : 189 (0xBD)-130 (0x82)
Формат : AC-3
Формат/Информация : Audio Coding 3
Расширение режима : CM (complete main)
Параметр Endianness формата : Big
Режим смешивания : DVD-Video
Продолжительность : 20 м.
Вид битрейта : Постоянный
Битрейт : 192 Кбит/сек
Каналы : 1 канал
Расположение каналов : Front: C
Частота : 48,0 КГц
Метод сжатия : С потерями
Размер потока : 27,9 Мбайт (3%)
Аудио #4
Идентификатор : 189 (0xBD)-131 (0x83)
Формат : AC-3
Формат/Информация : Audio Coding 3
Расширение режима : CM (complete main)
Параметр Endianness формата : Big
Режим смешивания : DVD-Video
Продолжительность : 20 м.
Вид битрейта : Постоянный
Битрейт : 192 Кбит/сек
Каналы : 2 канал
Расположение каналов : Front: C
Частота : 48,0 КГц
Метод сжатия : С потерями
Размер потока : 27,9 Мбайт (3%)
Аудио #5
Идентификатор : 189 (0xBD)-132 (0x84)
Формат : AC-3
Формат/Информация : Audio Coding 3
Расширение режима : CM (complete main)
Параметр Endianness формата : Big
Режим смешивания : DVD-Video
Продолжительность : 20 м.
Вид битрейта : Постоянный
Битрейт : 192 Кбит/сек
Каналы : 2 канала
Расположение каналов : Front: L R
Частота : 48,0 КГц
Метод сжатия : С потерями
Размер потока : 27,9 Мбайт (3%)
Аудио #6
Идентификатор : 189 (0xBD)-133 (0x85)
Формат : AC-3
Формат/Информация : Audio Coding 3
Расширение режима : CM (complete main)
Параметр Endianness формата : Big
Режим смешивания : DVD-Video
Продолжительность : 4 с. 512 мс.
Вид битрейта : Постоянный
Битрейт : 192 Кбит/сек
Каналы : 2 канала
Расположение каналов : Front: L R
Частота : 48,0 КГц
Метод сжатия : С потерями
Размер потока : 106 Кбайт (0%)
Аудио #7
Идентификатор : 189 (0xBD)-134 (0x86)
Формат : AC-3
Формат/Информация : Audio Coding 3
Расширение режима : CM (complete main)
Параметр Endianness формата : Big
Режим смешивания : DVD-Video
Продолжительность : 4 с. 512 мс.
Вид битрейта : Постоянный
Битрейт : 192 Кбит/сек
Каналы : 2 канала
Расположение каналов : Front: L R
Частота : 48,0 КГц
Метод сжатия : С потерями
Размер потока : 106 Кбайт (0%)
Текст #1
Идентификатор : 189 (0xBD)-40 (0x28)
Формат : RLE
Формат/Информация : Run-length encoding
Режим смешивания : DVD-Video
Текст #2
Идентификатор : 189 (0xBD)-41 (0x29)
Формат : RLE
Формат/Информация : Run-length encoding
Режим смешивания : DVD-Video

Скриншоты меню

Скриншоты

Скриншоты доп. материалов



[teatrix.ru].t12121.torrent 
Торрент: Зарегистрирован [ 2015-12-08 15:20 ] · 606BF4642C0644E909961100DF02BAD30A86640B

Скачать .torrent

Скачать

28 KB

Статус: проверено
Скачан: 0 раз
Размер: 5.34 GB
terms.php



Быстрый ответ

Имя:

      
Для отправки сообщений необходимо включить JavaScript
Показать сообщения:    

Текущее время: 11-Дек 01:28

Часовой пояс: UTC + 3


Вы можете начинать темы
Вы можете отвечать на сообщения
Вы не можете редактировать свои сообщения
Вы не можете удалять свои сообщения
Вы не можете голосовать в опросах
Вы не можете прикреплять файлы к сообщениям
Вы можете скачивать файлы