Повесть о жестокой юности / Cruel Story of Youth / Seishun zankoku monogatari (Нагиса Осима / Nagisa Oshima) [1960, Япония, драма, BDRip 720p] VO + Sub Rus, Eng + Original Jap


 

[Цитировать]

Повесть о жестокой юности / Cruel Story of Youth / Seishun zankoku monogatari-Страна: Япония
Жанр: Драма
Год выпуска: 1960
Продолжительность: 01:36:46-Перевод: Одноголосый закадровый
Cубтитры: русские, английские
Оригинальная аудиодорожка: японский-Режиссер: Нагиса Осима / Nagisa Oshima-В ролях: Миюки Кувано, Юсуки Кавазу, Фумио Ватанабе-Описание:
Поколение Макото и Киеси потакает своим желаниям. Макото учится в средней школе. Однажды Киеси спасает ее от нападения мужчины. На следующий день он встречается с ней, одновременно чуткий и жестокий, настаивает на сексе, а потом бросает ее. Неделю спустя она созванивается с ним. Когда Макото ожидает Киеси в баре, к ней пристают сутенеры. И снова Киеси спасает ее. На этот раз их отношения завязываются по-настоящему. Макото сближается с Киеси, продолжает учёбу в школе. Однако беременность Макото и короткое пребывание в тюрьме разрушают их отношения.-Релиз группы: -Сэмпл: Скачать-Тип релиза: BDRip 720p
Контейнер: MKV-Видео: 1280x536 (2.40:1); 11.0 Mbps; 23.976 fps; 0.667 bpp
Аудио: Russian; AC3; 48.0 KHz; 2ch; 192 Kbps
Аудио: Japanese; AC3; 48.0 KHz; 1ch; 640 Kbps
Формат субтитров: softsub (SRT)
MediaInfo
Format : Matroska
Format version : Version 4 / Version 2
File size : 8.14 GiB
Duration : 1h 36mn
Overall bit rate : 12.0 Mbps
Movie name : YiFan @ WiKi
Encoded date : UTC 2015-10-15 07:19:28
Writing application : mkvmerge v8.1.0 ('Psychedelic Postcard') 64bit
Writing library : libebml v1.3.1 + libmatroska v1.4.2
Attachements : poster.jpg
DURATION : 01:33:31.053000000
NUMBER_OF_FRAMES : 862
NUMBER_OF_BYTES : 22956
_STATISTICS_WRITING_APP : mkvmerge v8.1.0 ('Psychedelic Postcard') 64bit
_STATISTICS_WRITING_DATE_UTC : 2015-10-15 07:19:28
_STATISTICS_TAGS : BPS DURATION NUMBER_OF_FRAMES NUMBER_OF_BYTES
Video
ID : 1
Format : AVC
Format/Info : Advanced Video Codec
Format profile : High@L4.1
Format settings, CABAC : Yes
Format settings, ReFrames : 12 frames
Codec ID : V_MPEG4/ISO/AVC
Duration : 1h 36mn
Bit rate : 11.0 Mbps
Width : 1 280 pixels
Height : 536 pixels
Display aspect ratio : 2.40:1
Frame rate mode : Constant
Frame rate : 23.976 fps
Color space : YUV
Chroma subsampling : 4:2:0
Bit depth : 8 bits
Scan type : Progressive
Bits/(Pixel*Frame) : 0.667
Stream size : 7.41 GiB (91%)
Writing library : x264 core 124 r2197+666+28 3970b70 tMod+MixAQ [8-bit@4:2:0 X86]
Encoding settings : cabac=1 / ref=12 / deblock=1:-3:-3 / analyse=0x3:0x133 / me=tesa / subme=11 / psy=1 / fade_compensate=0.00 / psy_rd=1.05:0.15 / mixed_ref=1 / me_range=32 / chroma_me=1 / trellis=2 / 8x8dct=1 / cqm=0 / deadzone=21,11 / fast_pskip=0 / chroma_qp_offset=-3 / threads=12 / sliced_threads=0 / nr=0 / decimate=0 / interlaced=0 / bluray_compat=0 / constrained_intra=0 / fgo=0 / bframes=12 / b_pyramid=2 / b_adapt=2 / b_bias=0 / direct=3 / weightb=1 / open_gop=0 / weightp=2 / keyint=250 / keyint_min=23 / scenecut=40 / intra_refresh=0 / rc=crf / mbtree=0 / crf=17.8000 / qcomp=0.75 / qpmin=0 / qpmax=69 / qpstep=4 / ip_ratio=1.20 / pb_ratio=1.10 / aq=1 / aq-strength=0.70 / aq-sensitivity=10.00 / aq-ifactor=1.00 / aq-pfactor=1.00 / aq-bfactor=1.00 / aq2=0
Language : Japanese
Default : Yes
Forced : No
DURATION : 01:36:46.593000000
NUMBER_OF_FRAMES : 139219
NUMBER_OF_BYTES : 8131920910
_STATISTICS_WRITING_APP : mkvmerge v8.1.0 ('Psychedelic Postcard') 64bit
_STATISTICS_WRITING_DATE_UTC : 2015-10-15 07:19:28
_STATISTICS_TAGS : BPS DURATION NUMBER_OF_FRAMES NUMBER_OF_BYTES
Audio #1
ID : 2
Format : AC-3
Format/Info : Audio Coding 3
Mode extension : CM (complete main)
Format settings, Endianness : Big
Codec ID : A_AC3
Duration : 1h 36mn
Bit rate mode : Constant
Bit rate : 192 Kbps
Channel(s) : 2 channels
Channel positions : Front: L R
Sampling rate : 48.0 KHz
Bit depth : 16 bits
Compression mode : Lossy
Stream size : 133 MiB (2%)
Title : VO
Language : Russian
Default : Yes
Forced : No
Audio #2
ID : 3
Format : AC-3
Format/Info : Audio Coding 3
Mode extension : CM (complete main)
Format settings, Endianness : Big
Codec ID : A_AC3
Duration : 1h 36mn
Bit rate mode : Constant
Bit rate : 640 Kbps
Channel(s) : 1 channel
Channel positions : Front: C
Sampling rate : 48.0 KHz
Bit depth : 16 bits
Compression mode : Lossy
Stream size : 443 MiB (5%)
Language : Japanese
Default : No
Forced : No
Text #1
ID : 4
Format : UTF-8
Codec ID : S_TEXT/UTF8
Codec ID/Info : UTF-8 Plain Text
Language : Russian
Default : No
Forced : No
Text #2
ID : 5
Format : UTF-8
Codec ID : S_TEXT/UTF8
Codec ID/Info : UTF-8 Plain Text
Language : English
Default : No
Forced : No
Menu
00:00:00.000 : en:00:00:00.000
00:12:30.083 : en:00:12:30.083
00:18:53.299 : en:00:18:53.299
00:28:32.502 : en:00:28:32.502
00:38:08.745 : en:00:38:08.745
00:48:20.356 : en:00:48:20.356
01:01:23.013 : en:01:01:23.013
01:08:36.571 : en:01:08:36.571
01:20:37.082 : en:01:20:37.082
01:27:29.953 : en:01:27:29.953
Скриншоты



Показать сообщения:    

Текущее время: 06-Дек 20:59

Часовой пояс: UTC + 3


Вы не можете начинать темы
Вы не можете отвечать на сообщения
Вы не можете редактировать свои сообщения
Вы не можете удалять свои сообщения
Вы не можете голосовать в опросах
Вы не можете прикреплять файлы к сообщениям
Вы не можете скачивать файлы