Шнайдер против Бакса / Schneider vs. Bax (Алекс ван Вармердам / Alex van Warmerdam) [2015, Нидерланды, триллер, комедия, DVDRip] Dub (iTunes)


Статистика раздачи [Обновить пиров]
Размер:  747 MB   |    Зарегистрирован:  11 месяцев 26 дней   |    Скачан:  0 раз

Полного источника не было: Никогда

 
   
 
 
 

[Цитировать]

Шнайдер против Бакса / Schneider vs. Bax
Страна: Нидерланды
Жанр: триллер, комедия
Год выпуска: 2015
Продолжительность: 01:32:32
Перевод: Профессиональный (дублированный) iTunes
Cубтитры: нет
Режиссер: Алекс ван Вармердам / Alex van Warmerdam
В ролях: Том Де Виспеларе, Алекс ван Вармердам, Мария Краакман, Гене Бервутс, Аннет Мальэрб, Пьер Бокма, Анри Гарсен, Лоэс Хаверкорт, Ева ван де Вийдевен
Описание: Шнайдер — наемный убийца-профессионал. Даже в день своего рождения он обязан подчиниться заказчику, некоему Мертенсу, и ликвидировать Рамона Бакса, писателя, живущего в домишке на берегу озера, окруженного болотами. Киллеру приходится спешить — ведь дома его ждет праздничный обед в кругу семьи. Однако в этот день все идет наперекосяк. Непредвиденные обстоятельства то и дело возникают на пути Шнайдера, отодвигая исход операции. Он нервничает и не догадывается, что его жертва на самом деле тоже профессиональный гангстер, у которого он, Шнайдер, на мушке…
Сэмпл: http://multi-up.com/1078629
Качество видео: DVDRip
Формат видео: AVI
Видео: 688x288 (2.39:1), 25 fps, XviD build 73 ~990 kbps avg, 0.20 bit/pixel
Аудио: 48 kHz, MPEG Layer 3, 2 ch, ~128.00 kbps avg

MediaInfo

Формат : AVI
Формат/Информация : Audio Video Interleave
Размер файла : 747 Мбайт
Продолжительность : 1 ч. 32 м.
Общий поток : 1128 Кбит/сек
Программа кодирования : VirtualDubMod 1.5.10.3 | www.virtualdub-fr.org || (build 2550/release)
Библиотека кодирования : VirtualDubMod build 2550/release
Видео
Идентификатор : 0
Формат : MPEG-4 Visual
Профиль формата : Advanced Simple@L5
Параметр BVOP формата : 1
Параметр QPel формата : Нет
Параметр GMC формата : Без точки перехода
Параметр матрицы формата : Выборочная
Идентификатор кодека : XVID
Идентификатор кодека/Подсказка : XviD
Продолжительность : 1 ч. 32 м.
Битрейт : 990 Кбит/сек
Ширина : 688 пикселей
Высота : 288 пикселей
Соотношение сторон : 2,40:1
Частота кадров : 25,000 кадров/сек
Цветовое пространство : YUV
Субдискретизация насыщенности : 4:2:0
Битовая глубина : 8 бит
Тип развёртки : Прогрессивная
Метод сжатия : С потерями
Бит/(Пиксели*Кадры) : 0.200
Размер потока : 655 Мбайт (88%)
Библиотека кодирования : XviD 73
Аудио
Идентификатор : 1
Формат : MPEG Audio
Версия формата : Version 1
Профиль формата : Layer 3
Режим : Joint stereo
Идентификатор кодека : 55
Идентификатор кодека/Подсказка : MP3
Продолжительность : 1 ч. 32 м.
Вид битрейта : Постоянный
Битрейт : 128 Кбит/сек
Каналы : 2 канала
Частота : 48,0 КГц
Метод сжатия : С потерями
Размер потока : 84,7 Мбайт (11%)
Выравнивание : Соединение по промежуткам
Продолжительность промежутка : 40 мс. (1,00 видеокадр)
Время предзагрузки промежутка : 504 мс.
Библиотека кодирования : LAME3.99r
Настройки программы : -m j -V 4 -q 3 -lowpass 17 -b 128

Скриншоты

[teatrix.ru].t12125.torrent 
Торрент: Зарегистрирован [ 2015-12-09 05:25 ] · C14B4D30326908B933DA1360BC676CDBD06D7657

Скачать .torrent

Скачать

15 KB

Статус: проверено
Скачан: 0 раз
Размер: 747 MB
terms.php



Быстрый ответ

Имя:

      
Для отправки сообщений необходимо включить JavaScript
Показать сообщения:    

Текущее время: 04-Дек 13:15

Часовой пояс: UTC + 3


Вы можете начинать темы
Вы можете отвечать на сообщения
Вы не можете редактировать свои сообщения
Вы не можете удалять свои сообщения
Вы не можете голосовать в опросах
Вы не можете прикреплять файлы к сообщениям
Вы можете скачивать файлы