(Soundtrack) Брейкеры, Брейк-данс / Breakin' (Breakin' OST (Original Motion Picture Soundtrack) [2011 Reissue]) - 1984, FLAC (tracks+.cue), lossless


Статистика раздачи [Обновить пиров]
Размер:  260 MB   |    Зарегистрирован:  11 месяцев   |    Скачан:  0 раз

Полного источника не было: 1 месяц 27 дней

 
   
 
 
 

[Цитировать]

Брейкеры, Брейк-данс / Breakin'
Название альбома: Breakin' OST (Original Motion Picture Soundtrack) [2011 Reissue]
Жанр: Soundtrack
Год выпуска диска: 1984
Год выпуска фильма: 1984
Страна-производитель диска: USA
Издатель (лейбл): Polydor
Номер по каталогу: GET-54044
Аудиокодек: FLAC (*.flac)
Тип рипа: tracks+.cue
Битрейт аудио: lossless
Продолжительность: 0:41:01
Источник: WWW
сайт-источник/ник/другое: bentleyflac2014.blogspot.com.es
Наличие сканов в содержимом раздачи: да
Треклист:
01. Ollie And Jerry - Breakin'...There's No Stopping Us [4:37]
02. Bar-Kays - Freakshow On The Dance Floor [4:46]
03. Hot Streak - Body Work [4:25]
04. Carol Lynn Townes - 99½ [4:02]
05. Ollie And Jerry - Showdown [3:59]
06. 3-V - Heart Of The Beat [4:21]
07. Fire Fox - Street People [3:26]
08. Re-Flex - Cut It [3:14]
09. Rufus & Chaka Khan - Ain't Nobody [4:42]
10. Chris "The Glove" Taylor and David Storrs - Reckless [3:30]

Лог создания рипа

Exact Audio Copy V1.0 beta 1 from 15. November 2010
EAC extraction logfile from 28. June 2011, 20:19
Various artists / Breakin'
Used drive : TSSTcorpCDDVDW SE-S224Q Adapter: 1 ID: 0
Read mode : SecureUtilize accurate stream : YesDefeat audio cache : YesMake use of C2 pointers : No
Read offset correction : 6Overread into Lead-In and Lead-Out : NoFill up missing offset samples with silence : YesDelete leading and trailing silent blocks : NoNull samples used in CRC calculations : NoUsed interface : Native Win32 interface for Win NT & 2000Gap handling : Appended to previous track
Used output format : User Defined EncoderSelected bitrate : 768 kBit/sQuality : HighAdd ID3 tag : NoCommand line compressor : C:\Program Files\Exact Audio Copy\FLAC\FLAC.EXEAdditional command line options : -6 -V -T "ARTIST=%a" -T "TITLE=%t" -T "ALBUM=%g" -T "DATE=%y" -T "TRACKNUMBER=%n" -T "GENRE=%m" -T "COMMENT=%e" %j--picture="%i"%j %s -o %d
TOC of the extracted CD
Track | Start | Length | Start sector | End sector --------------------------------------------------------- 1 | 0:00.32 | 4:36.58 | 32 | 20789 2 | 4:37.15 | 4:45.67 | 20790 | 42231 3 | 9:23.07 | 4:25.05 | 42232 | 62111 4 | 13:48.12 | 4:02.00 | 62112 | 80261 5 | 17:50.12 | 3:59.05 | 80262 | 98191 6 | 21:49.17 | 4:21.23 | 98192 | 117789 7 | 26:10.40 | 3:25.50 | 117790 | 133214 8 | 29:36.15 | 3:13.57 | 133215 | 147746 9 | 32:49.72 | 4:42.10 | 147747 | 168906 10 | 37:32.07 | 3:30.23 | 168907 | 184679
Track 1
Filename C:\Documents and Settings\Kaseryn\My Documents\EAC\01. Breakin'...There's No Stopping Us.wav
Pre-gap length 0:00:02.32
Peak level 73.3 % Extraction speed 1.7 X Track quality 100.0 % Test CRC 3CD96C70 Copy CRC 3CD96C70 Accurately ripped (confidence 4) [D58D0D6B] Copy OK
Track 2
Filename C:\Documents and Settings\Kaseryn\My Documents\EAC\02. Freakshow On The Dance Floor.wav
Pre-gap length 0:00:03.00
Peak level 88.9 % Extraction speed 1.8 X Track quality 99.9 % Test CRC 2BD4E3D3 Copy CRC 2BD4E3D3 Accurately ripped (confidence 4) [5C4A2366] Copy OK
Track 3
Filename C:\Documents and Settings\Kaseryn\My Documents\EAC\03. Body Work.wav
Pre-gap length 0:00:02.74
Peak level 87.0 % Extraction speed 2.2 X Track quality 100.0 % Test CRC 5904745C Copy CRC 5904745C Accurately ripped (confidence 4) [AD1EEF24] Copy OK
Track 4
Filename C:\Documents and Settings\Kaseryn\My Documents\EAC\04. 99.5.wav
Pre-gap length 0:00:02.74
Peak level 74.5 % Extraction speed 2.3 X Track quality 100.0 % Test CRC 7B34B34D Copy CRC 7B34B34D Accurately ripped (confidence 4) [F1D62148] Copy OK
Track 5
Filename C:\Documents and Settings\Kaseryn\My Documents\EAC\05. Showdown.wav
Pre-gap length 0:00:02.74
Peak level 86.6 % Extraction speed 2.0 X Track quality 99.9 % Test CRC 07955461 Copy CRC 07955461 Accurately ripped (confidence 4) [04ABC0E2] Copy OK
Track 6
Filename C:\Documents and Settings\Kaseryn\My Documents\EAC\06. Heart Of The Beat.wav
Pre-gap length 0:00:02.74
Peak level 87.0 % Extraction speed 2.1 X Track quality 99.9 % Test CRC C6FEA55A Copy CRC C6FEA55A Accurately ripped (confidence 4) [A048760F] Copy OK
Track 7
Filename C:\Documents and Settings\Kaseryn\My Documents\EAC\07. Street People.wav
Pre-gap length 0:00:03.00
Peak level 87.0 % Extraction speed 2.6 X Track quality 100.0 % Test CRC 19C830F0 Copy CRC 19C830F0 Accurately ripped (confidence 4) [DA1BB385] Copy OK
Track 8
Filename C:\Documents and Settings\Kaseryn\My Documents\EAC\08. Cut It.wav
Pre-gap length 0:00:03.00
Peak level 87.0 % Extraction speed 2.7 X Track quality 100.0 % Test CRC 9DEB8532 Copy CRC 9DEB8532 Accurately ripped (confidence 4) [E23C8496] Copy OK
Track 9
Filename C:\Documents and Settings\Kaseryn\My Documents\EAC\09. Ain't Nobody.wav
Pre-gap length 0:00:02.74
Peak level 85.1 % Extraction speed 2.9 X Track quality 100.0 % Test CRC BEBC8A5B Copy CRC BEBC8A5B Accurately ripped (confidence 4) [25A1EECB] Copy OK
Track 10
Filename C:\Documents and Settings\Kaseryn\My Documents\EAC\10. Reckless.wav
Pre-gap length 0:00:01.74
Peak level 89.1 % Extraction speed 2.9 X Track quality 100.0 % Test CRC 83979005 Copy CRC 83979005 Accurately ripped (confidence 4) [EA62D9A1] Copy OK
All tracks accurately ripped
No errors occurred
End of status report

Содержание индексной карты (.CUE)

REM GENRE OtherREM DATE 1984REM DISCID 84099E0AREM COMMENT "ExactAudioCopy v1.0b1"PERFORMER "Various artists"TITLE "Breakin'"FILE "01. Breakin'...There's No Stopping Us.wav" WAVE TRACK 01 AUDIO TITLE "Breakin'...There's No Stopping Us" PERFORMER "Ollie and Jerry" PREGAP 00:00:32 INDEX 01 00:00:00 TRACK 02 AUDIO TITLE "Freakshow On The Dance Floor" PERFORMER "Bar-Kays" INDEX 00 04:33:58FILE "02. Freakshow On The Dance Floor.wav" WAVE INDEX 01 00:00:00 TRACK 03 AUDIO TITLE "Body Work" PERFORMER "Hot Streak" INDEX 00 04:42:68FILE "03. Body Work.wav" WAVE INDEX 01 00:00:00 TRACK 04 AUDIO TITLE "99.5" PERFORMER "Carol Lynn Townes" INDEX 00 04:22:06FILE "04. 99.5.wav" WAVE INDEX 01 00:00:00 TRACK 05 AUDIO TITLE "Showdown" PERFORMER "Ollie and Jerry" INDEX 00 03:59:01FILE "05. Showdown.wav" WAVE INDEX 01 00:00:00 TRACK 06 AUDIO TITLE "Heart Of The Beat" PERFORMER "3-V" INDEX 00 03:56:06FILE "06. Heart Of The Beat.wav" WAVE INDEX 01 00:00:00 TRACK 07 AUDIO TITLE "Street People" PERFORMER "Fire Fox" INDEX 00 04:18:23FILE "07. Street People.wav" WAVE INDEX 01 00:00:00 TRACK 08 AUDIO TITLE "Cut It" PERFORMER "Re-Flex" INDEX 00 03:22:50FILE "08. Cut It.wav" WAVE INDEX 01 00:00:00 TRACK 09 AUDIO TITLE "Ain't Nobody" PERFORMER "Rufus and Chaka Khan" INDEX 00 03:10:58FILE "09. Ain't Nobody.wav" WAVE INDEX 01 00:00:00 TRACK 10 AUDIO TITLE "Reckless" PERFORMER "Chris 'The Glove' Taylor and David Storrs" INDEX 00 04:40:11FILE "10. Reckless.wav" WAVE INDEX 01 00:00:00
[teatrix.ru].t12128.torrent 
Торрент: Зарегистрирован [ 2015-12-09 05:25 ] · 57210C851A70CC0D1392766CBBBDD252F3D431E5

Скачать .torrent

Скачать

83 KB

Статус: проверено
Скачан: 0 раз
Размер: 260 MB
terms.php



Быстрый ответ

Имя:

      
Для отправки сообщений необходимо включить JavaScript
Показать сообщения:    

Текущее время: 08-Дек 19:11

Часовой пояс: UTC + 3


Вы можете начинать темы
Вы можете отвечать на сообщения
Вы не можете редактировать свои сообщения
Вы не можете удалять свои сообщения
Вы не можете голосовать в опросах
Вы не можете прикреплять файлы к сообщениям
Вы можете скачивать файлы