Любовь / Love (Гаспар Ноэ / Gaspar Noé) [2015, Франция, Бельгия, драма, мелодрама, HDRip] MVO


 

[Цитировать]

Любовь / Love
Страна: Франция, Бельгия
Жанр: драма, мелодрама
Год выпуска: 2015
Продолжительность: 02:09:23
Перевод: Профессиональный (многоголосый закадровый)
Cубтитры: нет
Режиссер: Гаспар Ноэ / Gaspar Noé
В ролях: Аоми Муйок, Карл Глусман, Клара Кристин, Хуан Сааведра, Гаспар Ноэ, Венсан Мараваль, Бенуа Дебиф, Isabelle Nicou, Стелла Роча
Описание: Любовь вне добра и зла. Любовь — это генетическая потребность. Это дар и проклятие. Любовь — это болезнь, наркотик. Это потеря и обретение себя. Любовь — это самое прекрасное и самое ужасное в нашей жизни. Любовь — это переплетение душ и соединение тел. «Любовь» — это возбуждающая сексуальная мелодрама о парне, девушке и еще одной девушке...
Сэмпл: http://sendfile.su/1181728
Качество видео: HDRip
Формат видео: AVI
Видео: 1 410Kbps, 720*304 (2.35:1), at 25.000 fps, MPEG-4 Visual (XviD)
Аудио: 192 Kbps, 48.0 KHz, 16 bits, 2 channels, AC-3

MediaInfo

General
Complete name : D:\Love.2015_HDRip.avi
Format : AVI
Format/Info : Audio Video Interleave
File size : 1.46 GiB
Duration : 2h 9mn
Overall bit rate : 1 612 Kbps
Writing application : VirtualDubMod 1.5.10.3 | www.virtualdub-fr.org || (build 2550/release)
Writing library : VirtualDubMod build 2550/release
Video
ID : 0
Format : MPEG-4 Visual
Format profile : Advanced Simple@L5
Format settings, BVOP : 1
Format settings, QPel : No
Format settings, GMC : No warppoints
Format settings, Matrix : Custom
Codec ID : XVID
Codec ID/Hint : XviD
Duration : 2h 9mn
Bit rate : 1 410 Kbps
Width : 720 pixels
Height : 304 pixels
Display aspect ratio : 2.35:1
Frame rate : 25.000 fps
Color space : YUV
Chroma subsampling : 4:2:0
Bit depth : 8 bits
Scan type : Progressive
Compression mode : Lossy
Bits/(Pixel*Frame) : 0.258
Stream size : 1.27 GiB (87%)
Writing library : XviD 73
Audio
ID : 1
Format : AC-3
Format/Info : Audio Coding 3
Mode extension : CM (complete main)
Format settings, Endianness : Big
Codec ID : 2000
Duration : 2h 9mn
Bit rate mode : Constant
Bit rate : 192 Kbps
Channel(s) : 2 channels
Channel positions : Front: L R
Sampling rate : 48.0 KHz
Bit depth : 16 bits
Compression mode : Lossy
Stream size : 178 MiB (12%)
Alignment : Split accross interleaves
Interleave, duration : 40 ms (1.00 video frame)
Interleave, preload duration : 500 ms

Скриншот c названием фильма

Скриншоты




Показать сообщения:    

Текущее время: 05-Дек 13:32

Часовой пояс: UTC + 3


Вы не можете начинать темы
Вы не можете отвечать на сообщения
Вы не можете редактировать свои сообщения
Вы не можете удалять свои сообщения
Вы не можете голосовать в опросах
Вы не можете прикреплять файлы к сообщениям
Вы не можете скачивать файлы