Слово о театре (К. Ровнин) [1981, Центрнаучфильм, документальный, TeleSynch]


Статистика раздачи [Обновить пиров]
Размер:  600 MB   |    Зарегистрирован:  11 месяцев 27 дней   |    Скачан:  0 раз

Полного источника не было: Никогда

 
   
 
 
 

[Цитировать]

Слово о театре
Год выпуска: 1981
Страна: СССР
Жанр: документальный
Продолжительность: 00:56:17
Перевод: Не требуется
Режиссер: К. Ровнин
Описание: Фильм рассказывает о советском театральном искусстве 70х-80х годов. В фильм вошли сцены из спектаклей "История лошади" (БДТ), "Ричард III" (театр имени Шота Руставели), "Чайка" (МХАТ), "Женитьба" (театр на Малой Бронной), "Наедине со всеми" (МХАТ), "Спешите делать добро" (Современник), и др.; фрагменты репетиций, размышления актёров и режиссёров о современном исполнительском мастерстве. В фильме учавствуют такие мастера театра, как М. Ефремов, М. Ульянов, Н. Лебедев, и др. Показаны фрагменты спектаклей с участием Ф. Раневской, М. Неёловой, и других мастеров сцены
Доп. информация: Фильм оцифрован с киноплёнки 16-мм из личного архива. На плёнке сильное выцветание (см.скриншоты)
качество: TeleSynch
формат: AVI
Видео: XviD; 720х544; 4:3; 1489 kbps; 25 fps
Аудио: МР-3; 128 kbps; 48 kHz; 2 ch (моно)

MediaInfo

Format : AVIFormat/Info : Audio Video InterleaveFile size : 600 MiBDuration : 56mn 17sOverall bit rate : 1 489 KbpsWriting application : VirtualDubMod 1.5.4.1 (build 2178/release)Writing library : VirtualDubMod build 2178/release
VideoID : 0Format : MPEG-4 VisualFormat profile : Advanced Simple@L5Format settings, BVOP : 1Format settings, QPel : NoFormat settings, GMC : No warppointsFormat settings, Matrix : CustomCodec ID : XVIDCodec ID/Hint : XviDDuration : 56mn 17sBit rate : 1 354 KbpsWidth : 720 pixelsHeight : 544 pixelsDisplay aspect ratio : 4:3Frame rate : 25.000 fpsColor space : YUVChroma subsampling : 4:2:0Bit depth : 8 bitsScan type : ProgressiveCompression mode : LossyBits/(Pixel*Frame) : 0.138Stream size : 545 MiB (91%)Writing library : XviD 64
AudioID : 1Format : MPEG AudioFormat version : Version 1Format profile : Layer 3Mode : Joint stereoMode extension : MS StereoCodec ID : 55Codec ID/Hint : MP3Duration : 56mn 17sBit rate mode : ConstantBit rate : 128 KbpsChannel(s) : 2 channelsSampling rate : 48.0 KHzCompression mode : LossyStream size : 51.5 MiB (9%)Alignment : Aligned on interleavesInterleave, duration : 80 ms (2.00 video frames)Interleave, preload duratio : 504 msWriting library : LAME3.98rEncoding settings : -m j -V 4 -q 2 -lowpass 17 -b 128

Скриншоты

, , , , , , ,
[teatrix.ru].t12139.torrent 
Торрент: Зарегистрирован [ 2015-12-10 08:05 ] · 6113203410F4979561444284C77B533AF906E62F

Скачать .torrent

Скачать

12 KB

Статус: проверено
Скачан: 0 раз
Размер: 600 MB
terms.php



Быстрый ответ

Имя:

      
Для отправки сообщений необходимо включить JavaScript
Показать сообщения:    

Текущее время: 06-Дек 15:13

Часовой пояс: UTC + 3


Вы можете начинать темы
Вы можете отвечать на сообщения
Вы не можете редактировать свои сообщения
Вы не можете удалять свои сообщения
Вы не можете голосовать в опросах
Вы не можете прикреплять файлы к сообщениям
Вы можете скачивать файлы