(Classical) Johann Sebastian Bach - Organ Works - Masaaki Suzuki - 2015, FLAC (image+.cue) lossless


 

[Цитировать]

Johann Sebastian Bach - Organ Works - Masaaki Suzuki
Жанр: Classical
Страна-производитель диска: Sweden
Год издания диска: 2015
Издатель (лейбл): BIS
Номер по каталогу: BIS-SACD-2111
Дата записи: 2014
Аудиокодек: FLAC
Тип рипа: image+.cue
Битрейт аудио: lossless
Продолжительность: 79:26
Источник: собственный рип
Наличие сканов в содержимом раздачи: да
Треклист:
Johann Sebastian Bach (1685–1750)
[1]-[2] Toccata and Fugue in D minor, BWV565
[3]–[6] Pastorale in F major, BWV590
[7]–[15] Partite diverse sopra il Corale ‘O Gott, du frommer Gott’, BWV767
[16] Fantasia in G major, BWV572
[17]–[18] Prelude and Fugue in G minor, BWV535
[19]–[23] Canonic Variations on ‘Vom Himmel hoch da komm’ ich her’, BWV769
[24]–[25] Prelude and Fugue in E minor, BWV548
Исполнители:
Masaaki Suzuki
playing the Schnitger/Hinz organ in the Martinikerk, Groningen

Лог создания рипа

Exact Audio Copy V1.1 from 23. June 2015
EAC extraction logfile from 23. November 2015, 0:48
Masaaki Suzuki / Bach - Organ Works
Used drive : HL-DT-STDVDRAM GU70N Adapter: 1 ID: 0
Read mode : SecureUtilize accurate stream : YesDefeat audio cache : YesMake use of C2 pointers : No
Read offset correction : 48Overread into Lead-In and Lead-Out : NoFill up missing offset samples with silence : YesDelete leading and trailing silent blocks : NoNull samples used in CRC calculations : YesUsed interface : Native Win32 interface for Win NT & 2000
Used output format : User Defined EncoderSelected bitrate : 128 kBit/sQuality : HighAdd ID3 tag : NoCommand line compressor : C:\Program Files (x86)\Exact Audio Copy\Flac\flac.exeAdditional command line options : -V -8 -T "Date=%year%" -T "Genre=%genre%" %source%
TOC of the extracted CD
Track | Start | Length | Start sector | End sector --------------------------------------------------------- 1 | 0:00.00 | 2:27.01 | 0 | 11025 2 | 2:27.01 | 6:12.71 | 11026 | 38996 3 | 8:39.72 | 2:42.04 | 38997 | 51150 4 | 11:22.01 | 2:42.67 | 51151 | 63367 5 | 14:04.68 | 3:02.27 | 63368 | 77044 6 | 17:07.20 | 4:26.45 | 77045 | 97039 7 | 21:33.65 | 1:05.30 | 97040 | 101944 8 | 22:39.20 | 2:39.61 | 101945 | 113930 9 | 25:19.06 | 1:15.37 | 113931 | 119592 10 | 26:34.43 | 0:49.74 | 119593 | 123341 11 | 27:24.42 | 1:19.41 | 123342 | 129307 12 | 28:44.08 | 1:12.53 | 129308 | 134760 13 | 29:56.61 | 1:32.38 | 134761 | 141698 14 | 31:29.24 | 2:11.33 | 141699 | 151556 15 | 33:40.57 | 3:11.25 | 151557 | 165906 16 | 36:52.07 | 8:46.29 | 165907 | 205385 17 | 45:38.36 | 2:46.67 | 205386 | 217902 18 | 48:25.28 | 4:30.12 | 217903 | 238164 19 | 52:55.40 | 1:24.43 | 238165 | 244507 20 | 54:20.08 | 1:15.59 | 244508 | 250191 21 | 55:35.67 | 2:24.20 | 250192 | 261011 22 | 58:00.12 | 3:23.61 | 261012 | 276297 23 | 61:23.73 | 3:06.61 | 276298 | 290308 24 | 64:30.59 | 6:41.69 | 290309 | 320452 25 | 71:12.53 | 8:14.01 | 320453 | 357503
Range status and errors
Selected range
Filename C:\temp\BIS-SACD-2111 - Bach - Organ Works - Masaaki Suzuki\Bach - Organ Works.wav
Peak level 95.4 % Extraction speed 2.3 X Range quality 100.0 % Test CRC 5997E9CB Copy CRC 5997E9CB Copy OK
No errors occurred
AccurateRip summary
Track 1 accurately ripped (confidence 2) [FAADA8C5] (AR v2)Track 2 accurately ripped (confidence 2) [0F877F55] (AR v2)Track 3 accurately ripped (confidence 2) [EB58844D] (AR v2)Track 4 accurately ripped (confidence 2) [923CAA2A] (AR v2)Track 5 accurately ripped (confidence 2) [A9E2E1EE] (AR v2)Track 6 accurately ripped (confidence 2) [05D3BBFF] (AR v2)Track 7 accurately ripped (confidence 2) [B740582D] (AR v2)Track 8 accurately ripped (confidence 2) [B4F3DCF3] (AR v2)Track 9 accurately ripped (confidence 2) [9C407C93] (AR v2)Track 10 accurately ripped (confidence 2) [A1C24CA3] (AR v2)Track 11 accurately ripped (confidence 2) [07CDCE2B] (AR v2)Track 12 accurately ripped (confidence 2) [9B874938] (AR v2)Track 13 accurately ripped (confidence 2) [34C5988D] (AR v2)Track 14 accurately ripped (confidence 2) [31D94F89] (AR v2)Track 15 accurately ripped (confidence 2) [F02F200C] (AR v2)Track 16 accurately ripped (confidence 2) [12AA5B73] (AR v2)Track 17 accurately ripped (confidence 2) [B5E6AB01] (AR v2)Track 18 accurately ripped (confidence 2) [4ABE9B68] (AR v2)Track 19 accurately ripped (confidence 2) [3E80DDC6] (AR v2)Track 20 accurately ripped (confidence 2) [54172724] (AR v2)Track 21 accurately ripped (confidence 2) [9086D7D8] (AR v2)Track 22 accurately ripped (confidence 2) [E46F9EC3] (AR v2)Track 23 accurately ripped (confidence 2) [73AFFBDF] (AR v2)Track 24 accurately ripped (confidence 2) [DDD2151C] (AR v2)Track 25 accurately ripped (confidence 2) [7B3371E8] (AR v2)
All tracks accurately ripped
End of status report
==== Log checksum A0B20F33B223237CA4D8C38858337F9D8B6DEDED3175CE530889D7A851254BF5 ====



Показать сообщения:    

Текущее время: 05-Дек 19:36

Часовой пояс: UTC + 3


Вы не можете начинать темы
Вы не можете отвечать на сообщения
Вы не можете редактировать свои сообщения
Вы не можете удалять свои сообщения
Вы не можете голосовать в опросах
Вы не можете прикреплять файлы к сообщениям
Вы не можете скачивать файлы