(Score) Форсаж 7 / Furious 7 (by Brian Tyler) - 2015, FLAC (tracks+.cue), lossless


Статистика раздачи [Обновить пиров]
Размер:  434 MB   |    Зарегистрирован:  11 месяцев   |    Скачан:  0 раз
Сидов:  6  [  0 KB/s  ]   Личеров:  6  [  0 KB/s  ]   Подробная статистика пиров
 
   
 
 

[Цитировать]

Форсаж 7 / Furious 7
Название альбома: Furious 7 (Music by Brian Tyler)
Жанр: Score
Композитор: Brian Tyler
Год выпуска диска: 2015
Год выпуска фильма: 2015
Аудиокодек: FLAC (*.flac)
Тип рипа: tracks+.cue
Битрейт аудио: lossless
Продолжительность: 01:17:23
Источник: WRZMusic
Наличие сканов в содержимом раздачи: нет
Треклист:
01. Furious 7 (2:59)
02. Paratroopers (3:13)
03. Awakening (3:23)
04. Operation Ramsey (2:13)
05. Battle Of The Titans (2:01)
06. Parting Ways (2:23)
07. Mountain Hijack (2:05)
08. Homecoming (2:07)
09. Beast In A Cage (3:08)
10. Homefront (3:03)
11. Vow For Revenge (2:26)
12. Party Crashers (5:46)
13. The Three Towers (3:16)
14. God's Eye (2:57)
15. When Worlds Collide (2:36)
16. Remembrance (1:41)
17. Hobbs Is The Cavalry (2:32)
18. Operation Carjack (3:49)
19. A Completely Insane Plan (3:48)
20. Letty And Dom (2:27)
21. Heist In The Desert (1:59)
22. No More Funerals (3:16)
23. Hobbs Vs Shaw (3:22)
24. Connected (1:25)
25. About To Get Real Serious Up In Here (2:54)
26. Family (2:14)
27. One Last Stand (2:56)
28. Farewell (1:24)

Лог создания рипа

Exact Audio Copy V1.0 beta 4 from 7. December 2014
EAC extraction logfile from 16. November 2015, 23:24
Brian Tyler / Furious 7 (Original Motion Picture Score)
Used drive : PIONEER DVD-RW DVR-216D Adapter: 1 ID: 0
Read mode : SecureUtilize accurate stream : YesDefeat audio cache : YesMake use of C2 pointers : No
Read offset correction : 96Overread into Lead-In and Lead-Out : NoFill up missing offset samples with silence : YesDelete leading and trailing silent blocks : NoNull samples used in CRC calculations : YesUsed interface : Native Win32 interface for Win NT & 2000Gap handling : Appended to previous track
Used output format : User Defined EncoderSelected bitrate : 128 kBit/sQuality : HighAdd ID3 tag : NoCommand line compressor : C:\Program Files (x86)\Exact Audio Copy\Flac\flac.exeAdditional command line options : -8 -V -T "ARTIST=%artist%" -T "TITLE=%title%" -T "ALBUM=%albumtitle%" -T "DATE=%year%" -T "TRACKNUMBER=%tracknr1%" -T "GENRE=%genre%" -T "PERFORMER=%albuminterpret%" -T "COMPOSER=%composer%" %haslyrics%--tag-from-file=LYRICS="%lyricsfile%"%haslyrics% -T "ALBUMARTIST=%albumartist%" -T "DISCNUMBER=%cdnumber%" -T "TOTALDISCS=%totalcds%" -T "TOTALTRACKS=%numtracks%" -T "COMMENT=%comment%" %source% -o %dest%
TOC of the extracted CD
Track | Start | Length | Start sector | End sector --------------------------------------------------------- 1 | 0:00.00 | 2:59.14 | 0 | 13438 2 | 2:59.14 | 3:12.48 | 13439 | 27886 3 | 6:11.62 | 3:22.59 | 27887 | 43095 4 | 9:34.46 | 2:13.25 | 43096 | 53095 5 | 11:47.71 | 2:00.69 | 53096 | 62164 6 | 13:48.65 | 2:23.30 | 62165 | 72919 7 | 16:12.20 | 2:05.30 | 72920 | 82324 8 | 18:17.50 | 2:06.58 | 82325 | 91832 9 | 20:24.33 | 3:07.56 | 91833 | 105913 10 | 23:32.14 | 3:03.19 | 105914 | 119657 11 | 26:35.33 | 2:25.39 | 119658 | 130571 12 | 29:00.72 | 5:45.48 | 130572 | 156494 13 | 34:46.45 | 3:15.74 | 156495 | 171193 14 | 38:02.44 | 2:56.44 | 171194 | 184437 15 | 40:59.13 | 2:36.32 | 184438 | 196169 16 | 43:35.45 | 1:41.18 | 196170 | 203762 17 | 45:16.63 | 2:32.12 | 203763 | 215174 18 | 47:49.00 | 3:48.70 | 215175 | 232344 19 | 51:37.70 | 3:48.24 | 232345 | 249468 20 | 55:26.19 | 2:26.40 | 249469 | 260458 21 | 57:52.59 | 1:58.70 | 260459 | 269378 22 | 59:51.54 | 3:16.16 | 269379 | 284094 23 | 63:07.70 | 3:22.36 | 284095 | 299280 24 | 66:30.31 | 1:25.13 | 299281 | 305668 25 | 67:55.44 | 2:54.10 | 305669 | 318728 26 | 70:49.54 | 2:13.59 | 318729 | 328762 27 | 73:03.38 | 2:56.02 | 328763 | 341964 28 | 75:59.40 | 1:24.00 | 341965 | 348264
Track 1
Filename C:\EAC Rips\Brian Tyler - Furious 7 (Original Motion Picture Score) (2015) [FLAC]\01 - Furious 7.wav
Pre-gap length 0:00:02.00
Peak level 98.8 % Extraction speed 4.5 X Track quality 100.0 % Test CRC 8BC94D1C Copy CRC 8BC94D1C Accurately ripped (confidence 1) [23052D69] (AR v2) Copy OK
Track 2
Filename C:\EAC Rips\Brian Tyler - Furious 7 (Original Motion Picture Score) (2015) [FLAC]\02 - Paratroopers.wav
Pre-gap length 0:00:02.00
Peak level 99.6 % Extraction speed 4.9 X Track quality 100.0 % Test CRC 4BD6612D Copy CRC 4BD6612D Accurately ripped (confidence 1) [7BE58AC7] (AR v2) Copy OK
Track 3
Filename C:\EAC Rips\Brian Tyler - Furious 7 (Original Motion Picture Score) (2015) [FLAC]\03 - Awakening.wav
Pre-gap length 0:00:01.00
Peak level 98.8 % Extraction speed 5.2 X Track quality 100.0 % Test CRC 3E798722 Copy CRC 3E798722 Accurately ripped (confidence 1) [6D1AF08E] (AR v2) Copy OK
Track 4
Filename C:\EAC Rips\Brian Tyler - Furious 7 (Original Motion Picture Score) (2015) [FLAC]\04 - Operation Ramsey.wav
Pre-gap length 0:00:01.00
Peak level 98.8 % Extraction speed 5.0 X Track quality 100.0 % Test CRC 10865E86 Copy CRC 10865E86 Accurately ripped (confidence 1) [2BF26A12] (AR v2) Copy OK
Track 5
Filename C:\EAC Rips\Brian Tyler - Furious 7 (Original Motion Picture Score) (2015) [FLAC]\05 - Battle Of The Titans.wav
Pre-gap length 0:00:01.00
Peak level 98.9 % Extraction speed 5.1 X Track quality 100.0 % Test CRC 2ACA901B Copy CRC 2ACA901B Accurately ripped (confidence 1) [928630CA] (AR v2) Copy OK
Track 6
Filename C:\EAC Rips\Brian Tyler - Furious 7 (Original Motion Picture Score) (2015) [FLAC]\06 - Parting Ways.wav
Pre-gap length 0:00:01.00
Peak level 98.8 % Extraction speed 4.6 X Track quality 99.9 % Test CRC E7A9CFF7 Copy CRC E7A9CFF7 Accurately ripped (confidence 1) [ED0C4244] (AR v2) Copy OK
Track 7
Filename C:\EAC Rips\Brian Tyler - Furious 7 (Original Motion Picture Score) (2015) [FLAC]\07 - Mountain Hijack.wav
Pre-gap length 0:00:00.98
Peak level 98.8 % Extraction speed 5.5 X Track quality 100.0 % Test CRC 7385BD57 Copy CRC 7385BD57 Accurately ripped (confidence 1) [25AD109C] (AR v2) Copy OK
Track 8
Filename C:\EAC Rips\Brian Tyler - Furious 7 (Original Motion Picture Score) (2015) [FLAC]\08 - Homecoming.wav
Pre-gap length 0:00:01.00
Peak level 98.8 % Extraction speed 4.6 X Track quality 99.9 % Test CRC 234623C7 Copy CRC 234623C7 Accurately ripped (confidence 1) [23F4B8E5] (AR v2) Copy OK
Track 9
Filename C:\EAC Rips\Brian Tyler - Furious 7 (Original Motion Picture Score) (2015) [FLAC]\09 - Beast In A Cage.wav
Pre-gap length 0:00:01.00
Peak level 98.8 % Extraction speed 6.2 X Track quality 100.0 % Test CRC 8DDBF2EB Copy CRC 8DDBF2EB Accurately ripped (confidence 1) [E2245EDE] (AR v2) Copy OK
Track 10
Filename C:\EAC Rips\Brian Tyler - Furious 7 (Original Motion Picture Score) (2015) [FLAC]\10 - Homefront.wav
Pre-gap length 0:00:01.00
Peak level 98.8 % Extraction speed 5.5 X Track quality 99.9 % Test CRC 0C4425D4 Copy CRC 0C4425D4 Accurately ripped (confidence 1) [1446261A] (AR v2) Copy OK
Track 11
Filename C:\EAC Rips\Brian Tyler - Furious 7 (Original Motion Picture Score) (2015) [FLAC]\11 - Vow For Revenge.wav
Pre-gap length 0:00:01.00
Peak level 99.0 % Extraction speed 6.4 X Track quality 100.0 % Test CRC 7B9D7221 Copy CRC 7B9D7221 Accurately ripped (confidence 1) [267BBD58] (AR v2) Copy OK
Track 12
Filename C:\EAC Rips\Brian Tyler - Furious 7 (Original Motion Picture Score) (2015) [FLAC]\12 - Party Crashers.wav
Pre-gap length 0:00:01.00
Peak level 98.8 % Extraction speed 6.8 X Track quality 99.9 % Test CRC 0B98598D Copy CRC 0B98598D Accurately ripped (confidence 1) [40D11B43] (AR v2) Copy OK
Track 13
Filename C:\EAC Rips\Brian Tyler - Furious 7 (Original Motion Picture Score) (2015) [FLAC]\13 - The Three Towers.wav
Pre-gap length 0:00:01.00
Peak level 98.8 % Extraction speed 7.1 X Track quality 100.0 % Test CRC FBF2B0C4 Copy CRC FBF2B0C4 Accurately ripped (confidence 1) [9F8F6D63] (AR v2) Copy OK
Track 14
Filename C:\EAC Rips\Brian Tyler - Furious 7 (Original Motion Picture Score) (2015) [FLAC]\14 - God's Eye.wav
Pre-gap length 0:00:01.00
Peak level 98.8 % Extraction speed 6.2 X Track quality 99.9 % Test CRC 0EBC4984 Copy CRC 0EBC4984 Accurately ripped (confidence 1) [9ACBACA8] (AR v2) Copy OK
Track 15
Filename C:\EAC Rips\Brian Tyler - Furious 7 (Original Motion Picture Score) (2015) [FLAC]\15 - When Worlds Collide.wav
Pre-gap length 0:00:01.00
Peak level 98.8 % Extraction speed 7.2 X Track quality 100.0 % Test CRC 6CCB4430 Copy CRC 6CCB4430 Accurately ripped (confidence 1) [F69235D3] (AR v2) Copy OK
Track 16
Filename C:\EAC Rips\Brian Tyler - Furious 7 (Original Motion Picture Score) (2015) [FLAC]\16 - Remembrance.wav
Pre-gap length 0:00:01.00
Peak level 47.2 % Extraction speed 5.3 X Track quality 99.8 % Test CRC 2B52D83A Copy CRC 2B52D83A Accurately ripped (confidence 1) [A7802986] (AR v2) Copy OK
Track 17
Filename C:\EAC Rips\Brian Tyler - Furious 7 (Original Motion Picture Score) (2015) [FLAC]\17 - Hobbs Is The Cavalry.wav
Pre-gap length 0:00:01.00
Peak level 98.8 % Extraction speed 7.5 X Track quality 100.0 % Test CRC C996C12B Copy CRC C996C12B Accurately ripped (confidence 1) [2A29381C] (AR v2) Copy OK
Track 18
Filename C:\EAC Rips\Brian Tyler - Furious 7 (Original Motion Picture Score) (2015) [FLAC]\18 - Operation Carjack.wav
Pre-gap length 0:00:01.00
Peak level 98.8 % Extraction speed 8.1 X Track quality 100.0 % Test CRC A2F343D5 Copy CRC A2F343D5 Accurately ripped (confidence 1) [9F7A237A] (AR v2) Copy OK
Track 19
Filename C:\EAC Rips\Brian Tyler - Furious 7 (Original Motion Picture Score) (2015) [FLAC]\19 - A Completely Insane Plan.wav
Pre-gap length 0:00:01.00
Peak level 98.8 % Extraction speed 8.3 X Track quality 100.0 % Test CRC 8AD0BBB2 Copy CRC 8AD0BBB2 Accurately ripped (confidence 1) [89F80D4A] (AR v2) Copy OK
Track 20
Filename C:\EAC Rips\Brian Tyler - Furious 7 (Original Motion Picture Score) (2015) [FLAC]\20 - Letty And Dom.wav
Pre-gap length 0:00:01.00
Peak level 97.8 % Extraction speed 7.8 X Track quality 100.0 % Test CRC 593DA165 Copy CRC 593DA165 Accurately ripped (confidence 1) [D77FC65A] (AR v2) Copy OK
Track 21
Filename C:\EAC Rips\Brian Tyler - Furious 7 (Original Motion Picture Score) (2015) [FLAC]\21 - Heist In The Desert.wav
Pre-gap length 0:00:01.00
Peak level 98.8 % Extraction speed 7.5 X Track quality 100.0 % Test CRC F629052F Copy CRC F629052F Accurately ripped (confidence 1) [EE7AC2EA] (AR v2) Copy OK
Track 22
Filename C:\EAC Rips\Brian Tyler - Furious 7 (Original Motion Picture Score) (2015) [FLAC]\22 - No More Funerals.wav
Pre-gap length 0:00:01.00
Peak level 98.8 % Extraction speed 7.3 X Track quality 99.9 % Test CRC E65781CB Copy CRC E65781CB Accurately ripped (confidence 1) [D20781C0] (AR v2) Copy OK
Track 23
Filename C:\EAC Rips\Brian Tyler - Furious 7 (Original Motion Picture Score) (2015) [FLAC]\23 - Hobbs Vs Shaw.wav
Pre-gap length 0:00:01.00
Peak level 98.8 % Extraction speed 7.5 X Track quality 99.9 % Test CRC D61FC7F5 Copy CRC D61FC7F5 Accurately ripped (confidence 1) [23B7DD49] (AR v2) Copy OK
Track 24
Filename C:\EAC Rips\Brian Tyler - Furious 7 (Original Motion Picture Score) (2015) [FLAC]\24 - Connected.wav
Pre-gap length 0:00:01.00
Peak level 72.7 % Extraction speed 7.2 X Track quality 100.0 % Test CRC 9AB166C0 Copy CRC 9AB166C0 Accurately ripped (confidence 1) [1E2A5BB7] (AR v2) Copy OK
Track 25
Filename C:\EAC Rips\Brian Tyler - Furious 7 (Original Motion Picture Score) (2015) [FLAC]\25 - About To Get Real Serious Up In Here.wav
Pre-gap length 0:00:01.00
Peak level 98.8 % Extraction speed 8.6 X Track quality 100.0 % Test CRC 1C33B99D Copy CRC 1C33B99D Accurately ripped (confidence 1) [6FDCDC3E] (AR v2) Copy OK
Track 26
Filename C:\EAC Rips\Brian Tyler - Furious 7 (Original Motion Picture Score) (2015) [FLAC]\26 - Family.wav
Pre-gap length 0:00:01.00
Peak level 50.2 % Extraction speed 6.8 X Track quality 99.9 % Test CRC B63B4F9E Copy CRC B63B4F9E Accurately ripped (confidence 1) [85B841A5] (AR v2) Copy OK
Track 27
Filename C:\EAC Rips\Brian Tyler - Furious 7 (Original Motion Picture Score) (2015) [FLAC]\27 - One Last Stand.wav
Pre-gap length 0:00:01.00
Peak level 98.8 % Extraction speed 8.9 X Track quality 100.0 % Test CRC 1329AAEB Copy CRC 1329AAEB Accurately ripped (confidence 1) [04B4123D] (AR v2) Copy OK
Track 28
Filename C:\EAC Rips\Brian Tyler - Furious 7 (Original Motion Picture Score) (2015) [FLAC]\28 - Farewell.wav
Pre-gap length 0:00:01.00
Peak level 74.8 % Extraction speed 5.7 X Track quality 99.8 % Test CRC E0786E37 Copy CRC E0786E37 Accurately ripped (confidence 1) [513853F3] (AR v2) Copy OK
All tracks accurately ripped
No errors occurred
End of status report
---- CUETools DB Plugin V2.1.4
[CTDB TOCID: INnNvraIL7Y1FuUI_bTgQvp2m2U-] foundSubmit result: INnNvraIL7Y1FuUI_bTgQvp2m2U- has been confirmedTrack | CTDB Status 1 | (4/4) Accurately ripped 2 | (4/4) Accurately ripped 3 | (4/4) Accurately ripped 4 | (4/4) Accurately ripped 5 | (4/4) Accurately ripped 6 | (4/4) Accurately ripped 7 | (4/4) Accurately ripped 8 | (4/4) Accurately ripped 9 | (4/4) Accurately ripped 10 | (4/4) Accurately ripped 11 | (4/4) Accurately ripped 12 | (4/4) Accurately ripped 13 | (4/4) Accurately ripped 14 | (4/4) Accurately ripped 15 | (4/4) Accurately ripped 16 | (4/4) Accurately ripped 17 | (4/4) Accurately ripped 18 | (4/4) Accurately ripped 19 | (4/4) Accurately ripped 20 | (4/4) Accurately ripped 21 | (4/4) Accurately ripped 22 | (4/4) Accurately ripped 23 | (4/4) Accurately ripped 24 | (4/4) Accurately ripped 25 | (4/4) Accurately ripped 26 | (4/4) Accurately ripped 27 | (4/4) Accurately ripped 28 | (4/4) Accurately ripped
==== Log checksum A758A03CFFC417903023C648EA5BFBCB28EE6A41B889E918283A2CD08D04A155 ====

Содержание индексной карты (.CUE)

REM GENRE SoundtrackREM DATE 2015REM DISCID C912231CREM COMMENT "ExactAudioCopy v1.0b4"CATALOG 0851147006024PERFORMER "Brian Tyler"TITLE "Furious 7 (Original Motion Picture Score)"FILE "01 - Furious 7.wav" WAVE TRACK 01 AUDIO TITLE "Furious 7" PERFORMER "Brian Tyler" ISRC USQ4E1501495 INDEX 01 00:00:00 TRACK 02 AUDIO TITLE "Paratroopers" PERFORMER "Brian Tyler" ISRC USQ4E1501496 INDEX 00 02:57:14FILE "02 - Paratroopers.wav" WAVE INDEX 01 00:00:00 TRACK 03 AUDIO TITLE "Awakening" PERFORMER "Brian Tyler" ISRC USQ4E1501497 INDEX 00 03:11:48FILE "03 - Awakening.wav" WAVE INDEX 01 00:00:00 TRACK 04 AUDIO TITLE "Operation Ramsey" PERFORMER "Brian Tyler" ISRC USQ4E1501498 INDEX 00 03:21:59FILE "04 - Operation Ramsey.wav" WAVE INDEX 01 00:00:00 TRACK 05 AUDIO TITLE "Battle Of The Titans" PERFORMER "Brian Tyler" ISRC USQ4E1501499 INDEX 00 02:12:25FILE "05 - Battle Of The Titans.wav" WAVE INDEX 01 00:00:00 TRACK 06 AUDIO TITLE "Parting Ways" PERFORMER "Brian Tyler" ISRC USQ4E1501500 INDEX 00 01:59:69FILE "06 - Parting Ways.wav" WAVE INDEX 01 00:00:00 TRACK 07 AUDIO TITLE "Mountain Hijack" PERFORMER "Brian Tyler" ISRC USQ4E1501501 INDEX 00 02:22:31FILE "07 - Mountain Hijack.wav" WAVE INDEX 01 00:00:00 TRACK 08 AUDIO TITLE "Homecoming" PERFORMER "Brian Tyler" ISRC USQ4E1501502 INDEX 00 02:04:30FILE "08 - Homecoming.wav" WAVE INDEX 01 00:00:00 TRACK 09 AUDIO TITLE "Beast In A Cage" PERFORMER "Brian Tyler" ISRC USQ4E1501503 INDEX 00 02:05:58FILE "09 - Beast In A Cage.wav" WAVE INDEX 01 00:00:00 TRACK 10 AUDIO TITLE "Homefront" PERFORMER "Brian Tyler" ISRC USQ4E1501504 INDEX 00 03:06:56FILE "10 - Homefront.wav" WAVE INDEX 01 00:00:00 TRACK 11 AUDIO TITLE "Vow For Revenge" PERFORMER "Brian Tyler" ISRC USQ4E1501505 INDEX 00 03:02:19FILE "11 - Vow For Revenge.wav" WAVE INDEX 01 00:00:00 TRACK 12 AUDIO TITLE "Party Crashers" PERFORMER "Brian Tyler" ISRC USQ4E1501506 INDEX 00 02:24:39FILE "12 - Party Crashers.wav" WAVE INDEX 01 00:00:00 TRACK 13 AUDIO TITLE "The Three Towers" PERFORMER "Brian Tyler" ISRC USQ4E1501507 INDEX 00 05:44:48FILE "13 - The Three Towers.wav" WAVE INDEX 01 00:00:00 TRACK 14 AUDIO TITLE "God's Eye" PERFORMER "Brian Tyler" ISRC USQ4E1501508 INDEX 00 03:14:74FILE "14 - God's Eye.wav" WAVE INDEX 01 00:00:00 TRACK 15 AUDIO TITLE "When Worlds Collide" PERFORMER "Brian Tyler" ISRC USQ4E1501509 INDEX 00 02:55:44FILE "15 - When Worlds Collide.wav" WAVE INDEX 01 00:00:00 TRACK 16 AUDIO TITLE "Remembrance" PERFORMER "Brian Tyler" ISRC USQ4E1501510 INDEX 00 02:35:32FILE "16 - Remembrance.wav" WAVE INDEX 01 00:00:00 TRACK 17 AUDIO TITLE "Hobbs Is The Cavalry" PERFORMER "Brian Tyler" ISRC USQ4E1501511 INDEX 00 01:40:18FILE "17 - Hobbs Is The Cavalry.wav" WAVE INDEX 01 00:00:00 TRACK 18 AUDIO TITLE "Operation Carjack" PERFORMER "Brian Tyler" ISRC USQ4E1501512 INDEX 00 02:31:12FILE "18 - Operation Carjack.wav" WAVE INDEX 01 00:00:00 TRACK 19 AUDIO TITLE "A Completely Insane Plan" PERFORMER "Brian Tyler" ISRC USQ4E1501513 INDEX 00 03:47:70FILE "19 - A Completely Insane Plan.wav" WAVE INDEX 01 00:00:00 TRACK 20 AUDIO TITLE "Letty And Dom" PERFORMER "Brian Tyler" ISRC USQ4E1501514 INDEX 00 03:47:24FILE "20 - Letty And Dom.wav" WAVE INDEX 01 00:00:00 TRACK 21 AUDIO TITLE "Heist In The Desert" PERFORMER "Brian Tyler" ISRC USQ4E1501515 INDEX 00 02:25:40FILE "21 - Heist In The Desert.wav" WAVE INDEX 01 00:00:00 TRACK 22 AUDIO TITLE "No More Funerals" PERFORMER "Brian Tyler" ISRC USQ4E1501516 INDEX 00 01:57:70FILE "22 - No More Funerals.wav" WAVE INDEX 01 00:00:00 TRACK 23 AUDIO TITLE "Hobbs Vs Shaw" PERFORMER "Brian Tyler" ISRC USQ4E1501517 INDEX 00 03:15:16FILE "23 - Hobbs Vs Shaw.wav" WAVE INDEX 01 00:00:00 TRACK 24 AUDIO TITLE "Connected" PERFORMER "Brian Tyler" ISRC USQ4E1501518 INDEX 00 03:21:36FILE "24 - Connected.wav" WAVE INDEX 01 00:00:00 TRACK 25 AUDIO TITLE "About To Get Real Serious Up In Here" PERFORMER "Brian Tyler" ISRC USQ4E1501519 INDEX 00 01:24:13FILE "25 - About To Get Real Serious Up In Here.wav" WAVE INDEX 01 00:00:00 TRACK 26 AUDIO TITLE "Family" PERFORMER "Brian Tyler" ISRC USQ4E1501520 INDEX 00 02:53:10FILE "26 - Family.wav" WAVE INDEX 01 00:00:00 TRACK 27 AUDIO TITLE "One Last Stand" PERFORMER "Brian Tyler" ISRC USQ4E1501521 INDEX 00 02:12:59FILE "27 - One Last Stand.wav" WAVE INDEX 01 00:00:00 TRACK 28 AUDIO TITLE "Farewell" PERFORMER "Brian Tyler" ISRC USQ4E1501522 INDEX 00 02:55:02FILE "28 - Farewell.wav" WAVE INDEX 01 00:00:00

Лог проверки качества

-----------------------
DON'T MODIFY THIS FILE
-----------------------
PERFORMER: auCDtect Task Manager, ver. 1.5.1RC6 build 1.5.1.7Copyright (c) 2008-2010 y-soft. All rights reservedhttp://y-soft.org
ANALYZER: auCDtect: CD records authenticity detector, version 0.8.2Copyright (c) 2004 Oleg Berngardt. All rights reserved.Copyright (c) 2004 Alexander Djourik. All rights reserved.
FILE: 01 - Furious 7.flac Size: 22111791 Hash: AA509D3E4AE84BF3A96E7D7B647FCCE3 Accuracy: -m8 Conclusion: CDDA 100% Signature: 11EFF30E4B2DED5B845CEB40F4412193613D3319FILE: 02 - Paratroopers.flac Size: 22244096 Hash: 2DD5D9DCECF56CD5F3C50D907186FF6A Accuracy: -m8 Conclusion: CDDA 100% Signature: 85BADD635AFD9B761C2BE2622D1D5ABD1C2A9492FILE: 03 - Awakening.flac Size: 18972622 Hash: F8DEBE8071CD185EAA084B7D1DE587AA Accuracy: -m8 Conclusion: CDDA 100% Signature: B4347F47408E0076F17DA7A3D32CE982AD3845B4FILE: 04 - Operation Ramsey.flac Size: 12596768 Hash: 30B8C5A9DC98E0728FEF5A3A083905B3 Accuracy: -m8 Conclusion: CDDA 100% Signature: 1501A7C468FD5A2A68ADA2DA9D3A7E8FD3AA6C5BFILE: 05 - Battle Of The Titans.flac Size: 13974789 Hash: F882DE9FFB9A20A72EE9542E023D25B8 Accuracy: -m8 Conclusion: CDDA 100% Signature: 0D1D367367E958701C54ADB7EB78E88D402B5F7AFILE: 06 - Parting Ways.flac Size: 12169643 Hash: 639EAD99FBF98ADDA5B395E644991E68 Accuracy: -m8 Conclusion: CDDA 100% Signature: 5F2BE5DB9CF78E85D43D9993FC658E61236CA246FILE: 07 - Mountain Hijack.flac Size: 14561896 Hash: F5CC52F467D0DCCF98B03EF4C8A4EFD3 Accuracy: -m8 Conclusion: CDDA 100% Signature: 3A27512F65F10E6F13BF9FDD2369326480F66134FILE: 08 - Homecoming.flac Size: 10850252 Hash: 8B60C882292CD04CB08DA9A7FEB9ED78 Accuracy: -m8 Conclusion: CDDA 99% Signature: D09E4513C8633A1FE7D2711A1BD638BA2E7C0DE0FILE: 09 - Beast In A Cage.flac Size: 20741130 Hash: CEC4D91B3C4E22B0F4521D88F86B3AE9 Accuracy: -m8 Conclusion: CDDA 100% Signature: C5ACC8EF43D4A1141E05ED09850F28671F52644DFILE: 10 - Homefront.flac Size: 13343742 Hash: E036F5B1E4309DE9A83EE4A56F462414 Accuracy: -m8 Conclusion: CDDA 100% Signature: D364F6BE287AE677724A9777786BB1A98A9F7EE1FILE: 11 - Vow For Revenge.flac Size: 12548532 Hash: 3ABA18B570E247F365A6E305F54B7193 Accuracy: -m8 Conclusion: CDDA 100% Signature: EDEB4B77E64E55462F31C5AA44690B7579D0FE83FILE: 12 - Party Crashers.flac Size: 38676366 Hash: C2AA20C98CD3485A6CA7AA0B7174BA50 Accuracy: -m8 Conclusion: CDDA 100% Signature: BF61FD5E384B211353AD828A7E6DF7D16FBE13BCFILE: 13 - The Three Towers.flac Size: 19148366 Hash: 1D3D0A6F0E270B390C46C9115D49436D Accuracy: -m8 Conclusion: CDDA 100% Signature: 23514C28ACD3EE2400E07E6D17C0FD924F874E75FILE: 14 - God's Eye.flac Size: 17534788 Hash: A2F8F8B11CF1A95998395A68BBEFB543 Accuracy: -m8 Conclusion: CDDA 100% Signature: CC738207C7583E7BF0057122410513A0982518C9FILE: 15 - When Worlds Collide.flac Size: 15346768 Hash: 87B0C525EE88E93F5BED81B229545A4B Accuracy: -m8 Conclusion: CDDA 100% Signature: 007496F8EC30142C32FE8D42E6EF2620C857DC38FILE: 16 - Remembrance.flac Size: 7687343 Hash: 51CC8E886F50116E0AEA108C550F2A75 Accuracy: -m8 Conclusion: CDDA 100% Signature: 6DBF45DD8549B244B063F71446EE684D96857AFCFILE: 17 - Hobbs Is The Cavalry.flac Size: 14082588 Hash: EF1DA412582D08071AFCF80D05EF1893 Accuracy: -m8 Conclusion: CDDA 99% Signature: DD3DF2CC48B240C9FB6DEA548EB5A2C6C8BA6AF2FILE: 18 - Operation Carjack.flac Size: 23043643 Hash: A920F1EECA5913CC042F9A0FCE02997C Accuracy: -m8 Conclusion: CDDA 100% Signature: 848E0D574DAC8CFA0BBB13034AD88CB586E28EE3FILE: 19 - A Completely Insane Plan.flac Size: 24866457 Hash: C2202D6144812B9DC7E5942D907B6C5F Accuracy: -m8 Conclusion: CDDA 99% Signature: 404CBF2B918CBD4CF79F4F523DFD19D0A5618B49FILE: 20 - Letty And Dom.flac Size: 11752438 Hash: 5DC19DEA99AF76969332A373C581D6DE Accuracy: -m8 Conclusion: CDDA 100% Signature: 02F95AF38D6744BFAB4523E52C38CB6D2B6A13DDFILE: 21 - Heist In The Desert.flac Size: 12942151 Hash: 2F196CF30E6D276DD1DBF1CFD8FA65FF Accuracy: -m8 Conclusion: CDDA 100% Signature: 101DDC88CBD50D1655F980CE3BD89A38F293765AFILE: 22 - No More Funerals.flac Size: 15341159 Hash: 4B0138096A7C6A03C0E4A9408455FF41 Accuracy: -m8 Conclusion: CDDA 100% Signature: 28C7BB56B640BF45F3B7822281A2DFB135FD91A2FILE: 23 - Hobbs Vs Shaw.flac Size: 20677533 Hash: 8096CCECD34C75A4B8A57B37A4D88575 Accuracy: -m8 Conclusion: CDDA 100% Signature: 5B0DC61DB6A7058307C5FACB8E0E22D1E22B1B75FILE: 24 - Connected.flac Size: 7265212 Hash: B327A25EF99654F736FF6378B83FF12C Accuracy: -m8 Conclusion: CDDA 100% Signature: 593DE7693F112554D2FBCEE6F6C950CA0466A385FILE: 25 - About To Get Real Serious Up In Here.flac Size: 15267041 Hash: D7EA35BFAD0710F95B356FE77610D6B3 Accuracy: -m8 Conclusion: CDDA 99% Signature: 4F7601763AF6E1D1F050A5FF7790BB9240A492C5FILE: 26 - Family.flac Size: 10239127 Hash: 943E376895A4DE229FBDE78A4D4D4737 Accuracy: -m8 Conclusion: CDDA 100% Signature: 9EA93EAFB4C9B8BC3BE09D832D869500624A2543FILE: 27 - One Last Stand.flac Size: 19454329 Hash: 390D385F766972F7281A9DF7D9C4A950 Accuracy: -m8 Conclusion: CDDA 100% Signature: C8BC8E0E3ED1AEA0A9B4E48A7C15D3A72EBA58F9FILE: 28 - Farewell.flac Size: 7034385 Hash: 63BA8DCF49CEB4CB940EDF41CA5AC989 Accuracy: -m8 Conclusion: CDDA 100% Signature: F68DB1C920771B5F480DAC65CAEB5BD85EE1E146

Динамический диапазон

foobar2000 1.3.8 / Dynamic Range Meter 1.1.1log date: 2015-12-09 19:47:33
--------------------------------------------------------------------------------Analyzed: Brian Tyler / Furious 7 (Original Motion Picture Score)--------------------------------------------------------------------------------
DR Peak RMS Duration Track--------------------------------------------------------------------------------DR6 -0.10 dB -7.65 dB 2:59 01-Furious 7DR6 -0.03 dB -8.39 dB 3:13 02-ParatroopersDR8 -0.10 dB -12.06 dB 3:23 03-AwakeningDR8 -0.10 dB -12.46 dB 2:13 04-Operation RamseyDR6 -0.10 dB -8.04 dB 2:01 05-Battle Of The TitansDR10 -0.10 dB -14.60 dB 2:23 06-Parting WaysDR7 -0.10 dB -8.95 dB 2:05 07-Mountain HijackDR11 -0.10 dB -14.67 dB 2:07 08-HomecomingDR7 -0.10 dB -10.24 dB 3:08 09-Beast In A CageDR13 -0.10 dB -17.28 dB 3:03 10-HomefrontDR9 -0.09 dB -12.74 dB 2:26 11-Vow For RevengeDR7 -0.10 dB -9.46 dB 5:46 12-Party CrashersDR7 -0.10 dB -11.11 dB 3:16 13-The Three TowersDR8 -0.10 dB -11.35 dB 2:57 14-God's EyeDR7 -0.10 dB -10.57 dB 2:36 15-When Worlds CollideDR10 -6.52 dB -21.00 dB 1:41 16-RemembranceDR8 -0.10 dB -11.72 dB 2:32 17-Hobbs Is The CavalryDR7 -0.10 dB -10.29 dB 3:49 18-Operation CarjackDR7 -0.10 dB -10.22 dB 3:48 19-A Completely Insane PlanDR11 -0.19 dB -16.98 dB 2:27 20-Letty And DomDR7 -0.10 dB -9.64 dB 1:59 21-Heist In The DesertDR9 -0.10 dB -14.50 dB 3:16 22-No More FuneralsDR6 -0.10 dB -10.33 dB 3:22 23-Hobbs Vs ShawDR10 -2.76 dB -19.04 dB 1:25 24-ConnectedDR9 -0.10 dB -13.31 dB 2:54 25-About To Get Real Serious Up In HereDR9 -5.98 dB -19.26 dB 2:14 26-FamilyDR7 -0.10 dB -9.61 dB 2:56 27-One Last StandDR10 -2.52 dB -17.00 dB 1:24 28-Farewell--------------------------------------------------------------------------------
Number of tracks: 28Official DR value: DR8
Samplerate: 44100 HzChannels: 2Bits per sample: 16Bitrate: 662 kbpsCodec: FLAC================================================================================
[teatrix.ru].t12142.torrent 
Торрент: Зарегистрирован [ 2015-12-10 08:05 ] · F3C24BDF5BF62169E6F1E63DA3D00B362EA5E98B

Скачать .torrent

Скачать

11 KB

Статус: проверено
Скачан: 0 раз
Размер: 434 MB
terms.php



Быстрый ответ

Имя:

      
Для отправки сообщений необходимо включить JavaScript
Показать сообщения:    

Текущее время: 08-Дек 03:14

Часовой пояс: UTC + 3


Вы можете начинать темы
Вы можете отвечать на сообщения
Вы не можете редактировать свои сообщения
Вы не можете удалять свои сообщения
Вы не можете голосовать в опросах
Вы не можете прикреплять файлы к сообщениям
Вы можете скачивать файлы