Яков Крейзер. Забытый генерал (Сергей Литовец) [Россия, 2015, Документальный, DVB-AVC]


Статистика раздачи [Обновить пиров]
Размер:  693 MB   |    Зарегистрирован:  11 месяцев 23 дня   |    Скачан:  0 раз
Сидов:  9  [  0 KB/s  ]   Личеров:  2  [  0 KB/s  ]   Подробная статистика пиров
 
   
 
 

[Цитировать]

Яков Крейзер. Забытый генерал
Год выпуска: 2015
Страна: Россия
Студия: АБ-ТВ
Жанр: Документальный
Продолжительность: 00:39:15
Перевод: Не требуется
Режиссер: Сергей Литовец
Релиз:
Описание: Фильм о выдающемся советском военачальнике, Герое Советского Союза, генерале армии, еврее — Якове Григорьевиче Крейзере. Сегодня его имя вспоминают редко, а в дни войны его знали все. Но именно дивизия Крейзера в июне 1941 года в сражении на реке Березине в Белоруссии сумела остановить фашистские войска, нарушив план их продвижения к Москве. Это был не просто первый успех наших войск, это был первый шаг к освобождению Белоруссии и победе советских войск в войне. Маршал Г.К. Жуков писал о боях на Березине как о «единственной на тот момент удаче на всех фронтах». Его награждали и отстраняли от командования, о нем слагали песни, на него писали доносы. Он не был в числе тех, кто любит говорить о себе много, возможно, поэтому сегодня о нем вспоминают так редко. Хочется исправить эту несправедливость.
В фильме использованы кадры кинохроники, редкие архивные документы и фотографии, интервью с военными историками, с родственниками, сослуживцами и друзьями Я.Г. Крейзера, документы из музеев Могилева, Борисова и Севастополя.
Доп. информация:
Сценарий: Татьяна Басова
Оператор: Сергей Стариков
Текст читает: Сергей Чонишвили
Запись потока *.ts с наземного цифрового телеканала "Беларусь 3", ремукс в *.mkv программой VideoReDo.
Сведение звука без перекодировки mkvtoolnix
Сэмпл: http://multi-up.com/1078783
качество: DVB-AVC
формат: MKV
Видео: MPEG4 Video (H264) 720x576 (49:36) 25fps, 2 163 Kbps
Аудио: MPEG Audio 48000Hz stereo 256kbps

MediaInfo

GeneralUnique ID : 173095930869531103510371044965965879027 (0x8239104B73F74541AA510F1946AFD6F3)Complete name : D:\Новая земля 2\001 Документальный фильмы\ВОВ и другие войны\Яков Крейзер. Забытый генерал (2015)\Яков Крейзер. Забытый генерал_2015.mkvFormat : MatroskaFormat version : Version 4 / Version 2File size : 693 MiBDuration : 39mn 15sOverall bit rate : 2 468 KbpsEncoded date : UTC 2015-12-09 10:09:59Writing application : mkvmerge v8.5.1 ('Where you lead I will follow') 32bitWriting library : libebml v1.3.3 + libmatroska v1.4.4DURATION : 00:39:15.408000000NUMBER_OF_FRAMES : 98142NUMBER_OF_BYTES : 75373056_STATISTICS_WRITING_APP : mkvmerge v8.5.1 ('Where you lead I will follow') 32bit_STATISTICS_WRITING_DATE_UTC : 2015-12-09 10:09:59_STATISTICS_TAGS : BPS DURATION NUMBER_OF_FRAMES NUMBER_OF_BYTES
VideoID : 1Format : AVCFormat/Info : Advanced Video CodecFormat profile : Main@L3.0Format settings, CABAC : YesFormat settings, ReFrames : 4 framesFormat settings, GOP : M=4, N=24Codec ID : V_MPEG4/ISO/AVCDuration : 39mn 15sBit rate : 2 163 KbpsWidth : 720 pixelsHeight : 576 pixelsDisplay aspect ratio : 4:3Original display aspect ratio : 4:3Frame rate mode : ConstantFrame rate : 25.000 fpsStandard : PALColor space : YUVChroma subsampling : 4:2:0Bit depth : 8 bitsScan type : MBAFFScan order : Top Field FirstBits/(Pixel*Frame) : 0.209Stream size : 607 MiB (88%)Default : YesForced : NoColor primaries : BT.601 PALTransfer characteristics : BT.470 System B, BT.470 System GMatrix coefficients : BT.601Color range : Limited
AudioID : 2Format : MPEG AudioFormat version : Version 1Format profile : Layer 2Codec ID : A_MPEG/L2Codec ID/Hint : MP2Duration : 39mn 15sBit rate mode : ConstantBit rate : 256 KbpsChannel(s) : 2 channelsSampling rate : 48.0 KHzCompression mode : LossyDelay relative to video : 100msStream size : 71.9 MiB (10%)Language : EnglishDefault : YesForced : No
[teatrix.ru].t12145.torrent 
Торрент: Зарегистрирован [ 2015-12-10 08:05 ] · 2A848DE0617B385F266DE72239D848977AD6F81A

Скачать .torrent

Скачать

14 KB

Статус: проверено
Скачан: 0 раз
Размер: 693 MB
terms.php



Быстрый ответ

Имя:

      
Для отправки сообщений необходимо включить JavaScript
Показать сообщения:    

Текущее время: 03-Дек 01:13

Часовой пояс: UTC + 3


Вы можете начинать темы
Вы можете отвечать на сообщения
Вы не можете редактировать свои сообщения
Вы не можете удалять свои сообщения
Вы не можете голосовать в опросах
Вы не можете прикреплять файлы к сообщениям
Вы можете скачивать файлы