(Classical) Wolfgang Amadeus Mozart — String Quartets № 19, 20 & 23 (K 465, 499 & 590) (Budapest String Quartet) — 2006, FLAC (image+.cue) lossless


 

[Цитировать]

String Quartets № 19, 20 & 23 (K 465, 499 & 590)-
Жанр: Classical
Страна-производитель диска: Великобритания
Год издания диска: 2006
Издатель (лейбл): Biddulph Records
Номер по каталогу: 80213-2
Композитор: Wolfgang Amadeus Mozart
Исполнительский коллектив: Budapest String Quartet
Аудио кодек: flac
Тип рипа: image+.cue
Битрейт аудио: lossless
Продолжительность: 01h11'58"
Источник: thepiratebay
Наличие сканов в содержимом раздачи: нет-Треклист:
(01-04) String Quartet № 19 C-Dur K 465 «Dissonant» [23'59"]
(05-08) String Quartet № 20 D-Dur K 499 «Hoffmeister» [23'28"]
(09-12) String Quartet № 23 F-Dur K 590 «Prussian (3)» [24'31"]-

CUE

REM DISCID A510DD0C
PERFORMER "Budapest Quartet"
TITLE "Mozart: String Quartets Nos. K. 465 , K. 499 & K. 590 "
REM COMMENT "CUERipper v2.1.4 Copyright (C) 2008-12 Grigory Chudov"
FILE "Budapest Quartet - Mozart_ String Quartets Nos. K. 465 , K. 499 & K. 590 .flac" WAVE
  TRACK 01 AUDIO
    PERFORMER "Budapest Quartet"
    TITLE "String Quartet No. 19 in C major ('Dissonant'), K. 465 I Adagio - Allegro"
    INDEX 01 00:00:00
  TRACK 02 AUDIO
    PERFORMER "Budapest Quartet"
    TITLE "String Quartet No. 19 in C major ('Dissonant'), K. 465 II Andante cantabile"
    INDEX 01 07:25:56
  TRACK 03 AUDIO
    PERFORMER "Budapest Quartet"
    TITLE "String Quartet No. 19 in C major ('Dissonant'), K. 465 III Menuetto: Allegretto"
    INDEX 01 15:01:11
  TRACK 04 AUDIO
    PERFORMER "Budapest Quartet"
    TITLE "String Quartet No. 19 in C major ('Dissonant'), K. 465 IV Allegro molto"
    INDEX 01 19:27:32
  TRACK 05 AUDIO
    PERFORMER "Budapest Quartet"
    TITLE "String Quartet No. 20 in D major ('Hoffmeister'), K. 499 I Allegretto"
    INDEX 01 23:58:65
  TRACK 06 AUDIO
    PERFORMER "Budapest Quartet"
    TITLE "String Quartet No. 20 in D major ('Hoffmeister'), K. 499 II Menuetto: Allegretto"
    INDEX 01 30:51:59
  TRACK 07 AUDIO
    PERFORMER "Budapest Quartet"
    TITLE "String Quartet No. 20 in D major ('Hoffmeister'), K. 499 III Adagio"
    INDEX 01 34:09:32
  TRACK 08 AUDIO
    PERFORMER "Budapest Quartet"
    TITLE "String Quartet No. 20 in D major ('Hoffmeister'), K. 499 IV Allegro"
    INDEX 01 42:53:62
  TRACK 09 AUDIO
    PERFORMER "Budapest Quartet"
    TITLE "String Quartet No. 23 in F major ('Prussian 3'), K. 590 I Allegro"
    INDEX 01 47:27:02
  TRACK 10 AUDIO
    PERFORMER "Budapest Quartet"
    TITLE "String Quartet No. 23 in F major ('Prussian 3'), K. 590 II Andante"
    INDEX 01 56:03:43
  TRACK 11 AUDIO
    PERFORMER "Budapest Quartet"
    TITLE "String Quartet No. 23 in F major ('Prussian 3'), K. 590 III Menuetto: Allegretto"
    INDEX 01 63:38:30
  TRACK 12 AUDIO
    PERFORMER "Budapest Quartet"
    TITLE "String Quartet No. 23 in F major ('Prussian 3'), K. 590 IV Allegro"
    INDEX 01 67:23:50

-

auCDtect log

-----------------------
DON'T MODIFY THIS FILE
-----------------------
PERFORMER: auCDtect Task Manager, ver. 1.5.1RC4 build 1.5.1.5
Copyright (c) 2008-2010 y-soft. All rights reserved
http://y-soft.org
ANALYZER: auCDtect: CD records authenticity detector, version 0.8.2
Copyright (c) 2004 Oleg Berngardt. All rights reserved.
Copyright (c) 2004 Alexander Djourik. All rights reserved.
FILE: Budapest Quartet - Mozart_ String Quartets Nos. K. 465 , K. 499 & K. 590 .wav
  Size: 761624684 Hash: F71515709E988436A81FBE7584F7188F Accuracy: -m0
  Conclusion: CDDA 100%
  Signature: 1FF479ADD222B4FFB0952A4908407DB79A904899

-

Spectrogram

-



Показать сообщения:    

Текущее время: 11-Дек 09:12

Часовой пояс: UTC + 3


Вы не можете начинать темы
Вы не можете отвечать на сообщения
Вы не можете редактировать свои сообщения
Вы не можете удалять свои сообщения
Вы не можете голосовать в опросах
Вы не можете прикреплять файлы к сообщениям
Вы не можете скачивать файлы