Собачья площадка / Dog-walking ground (Леонид Шмельков) [2009, Россия, авторская анимация, WEBRip]


 

[Цитировать]

Собачья площадка / Dog-walking ground
Страна: Россия
Жанр: авторская анимация
Год выпуска: 2009
Продолжительность: 00:08:14
Перевод: не требуется
Cубтитры: нет
Режиссёр: Леонид Шмельков
Описание: Шуточная зарисовка о завсегдатаях собачьей площадки и их питомцах.
Доп. информация: Работа студента школы-студии "Шар"
Качество видео: WEBRip
Формат видео: AVI
Видео: 1378 kbps, 640х480 (4:3), 25.000 fps, MPEG-4 Visual (XviD)
Аудио: 128 kbps, 44.1 kHz, 2 channels, MPEG Audio (MP3)

MediaInfo

General
Complete name : Собачья площадка (2009).avi
Format : AVI
Format/Info : Audio Video Interleave
File size : 89.3 MiB
Duration : 8mn 14s
Overall bit rate : 1 516 Kbps
Writing library : VirtualDub build 35491/release
Video
ID : 0
Format : MPEG-4 Visual
Format profile : Advanced Simple@L5
Format settings, BVOP : 2
Format settings, QPel : No
Format settings, GMC : No warppoints
Format settings, Matrix : Default (H.263)
Codec ID : XVID
Codec ID/Hint : XviD
Duration : 8mn 14s
Bit rate : 1 378 Kbps
Width : 640 pixels
Height : 480 pixels
Display aspect ratio : 4:3
Frame rate : 25.000 fps
Color space : YUV
Chroma subsampling : 4:2:0
Bit depth : 8 bits
Scan type : Progressive
Compression mode : Lossy
Bits/(Pixel*Frame) : 0.179
Stream size : 81.2 MiB (91%)
Writing library : XviD 64
Audio
ID : 1
Format : MPEG Audio
Format version : Version 1
Format profile : Layer 3
Mode : Joint stereo
Codec ID : 55
Codec ID/Hint : MP3
Duration : 8mn 14s
Bit rate mode : Constant
Bit rate : 128 Kbps
Channel(s) : 2 channels
Sampling rate : 44.1 KHz
Compression mode : Lossy
Stream size : 7.52 MiB (8%)
Alignment : Split accross interleaves
Interleave, duration : 40 ms (1.00 video frame)
Interleave, preload duration : 501 ms

Скриншот c названием фильма

Скриншоты




Показать сообщения:    

Текущее время: 06-Дек 17:10

Часовой пояс: UTC + 3


Вы не можете начинать темы
Вы не можете отвечать на сообщения
Вы не можете редактировать свои сообщения
Вы не можете удалять свои сообщения
Вы не можете голосовать в опросах
Вы не можете прикреплять файлы к сообщениям
Вы не можете скачивать файлы