Рукопись, найденная в Сарагоcе / Rękopis znaleziony w Saragossie (Войцех Хас / Wojciech Has) [1965, Польша, приключения, фантазия, BDRip] Dub + Sub Rus, Eng + Original Pol


 

[Цитировать]

Рукопись, найденная в Сарагоcе / Rękopis znaleziony w Saragossie
Страна: Польша
Жанр: приключения, фантазия
Год выпуска: 1965
Продолжительность: 03:03:27
Перевод: Профессиональный (дублированный) - Советский дубляж
Cубтитры: русские, английские
Оригинальная аудиодорожка: польский

Режиссер: Войцех Хас / Wojciech Has
В ролях: Збигнев Цибульский, Ига Чембржынска, Эльжбета Чижевска, Густав Холоубек, Станислав Игар, Иоанна Ендрыка, Януш Клосиньский, Богумил Кобеля, Барбара Крафтувна, Ядвига Кравчи, Франтишек Печка
Описание: По одноименной сатирической повести Яна Потоцкого о необычных, порой сверхъестественных приключениях капитана валлонской гвардии Альфонсо ван Вордена в горах Испании в ХVIII веке. Молодой офицер спешит в свой полк, но вновь и вновь оказывается вблизи заброшенного трактира в горах и двух виселиц с телами бандитов, словно попал в некий заколдованный круг, из которого нет выхода...
Качество видео: BDRip [Saragossa.Manuscript.1965.L.BluRay]
Формат видео: AVI
Видео: 720x304 (2.37:1), 24 fps, XviD build 73 ~1320 kbps avg, 0.25 bit/pixel
Аудио: 48 kHz, AC3 Dolby Digital, 2/0 (L,R) ch, ~192 kbps - дубляж
Аудио: 48 kHz, AC3 Dolby Digital, 2/0 (L,R) ch, ~192 kbps - оригинал

MediaInfo

Общее
Полное имя : H:\Rekopis.Znaleziony.w.Saragossie.1965.bdrip_[2.18]_[teko]\Rekopis.Znaleziony.w.Saragossie.1965.bdrip_[2.18].avi
Формат : AVI
Формат/Информация : Audio Video Interleave
Профиль формата : OpenDML
Размер файла : 2,19 Гбайт
Продолжительность : 3 ч. 3 м.
Общий поток : 1710 Кбит/сек
Программа кодирования : VirtualDubMod 1.5.10.3 | www.virtualdub-fr.org || (build 2550/release)
Библиотека кодирования : VirtualDubMod build 2550/release
Видео
Идентификатор : 0
Формат : MPEG-4 Visual
Профиль формата : Advanced Simple@L5
Параметр BVOP формата : 1
Параметр QPel формата : Нет
Параметр GMC формата : Без точки перехода
Параметр матрицы формата : Выборочная
Идентификатор кодека : XVID
Идентификатор кодека/Подсказка : XviD
Продолжительность : 3 ч. 3 м.
Битрейт : 1310 Кбит/сек
Ширина : 720 пикселей
Высота : 304 пикселя
Соотношение сторон : 2,35:1
Частота кадров : 24,000 кадра/сек
Цветовое пространство : YUV
Субдискретизация насыщенности : 4:2:0
Битовая глубина : 8 бит
Тип развёртки : Прогрессивная
Метод сжатия : С потерями
Бит/(Пиксели*Кадры) : 0.249
Размер потока : 1,68 Гбайт (77%)
Библиотека кодирования : XviD 73
Аудио #1
Идентификатор : 1
Формат : AC-3
Формат/Информация : Audio Coding 3
Расширение режима : CM (complete main)
Параметр Endianness формата : Big
Идентификатор кодека : 2000
Продолжительность : 3 ч. 2 м.
Вид битрейта : Постоянный
Битрейт : 192 Кбит/сек
Каналы : 2 канала
Расположение каналов : Front: L R
Частота : 48,0 КГц
Битовая глубина : 16 бит
Метод сжатия : С потерями
Размер потока : 250 Мбайт (11%)
Выравнивание : Разделение по промежуткам
Продолжительность промежутка : 42 мс. (1,01 видеокадр)
Время предзагрузки промежутка : 500 мс.
Аудио #2
Идентификатор : 2
Формат : AC-3
Формат/Информация : Audio Coding 3
Расширение режима : CM (complete main)
Параметр Endianness формата : Big
Идентификатор кодека : 2000
Продолжительность : 3 ч. 3 м.
Вид битрейта : Постоянный
Битрейт : 192 Кбит/сек
Каналы : 2 канала
Расположение каналов : Front: L R
Частота : 48,0 КГц
Битовая глубина : 16 бит
Метод сжатия : С потерями
Размер потока : 252 Мбайт (11%)
Выравнивание : Разделение по промежуткам
Продолжительность промежутка : 42 мс. (1,00 видеокадр)
Время предзагрузки промежутка : 500 мс.



Показать сообщения:    

Текущее время: 07-Дек 13:37

Часовой пояс: UTC + 3


Вы не можете начинать темы
Вы не можете отвечать на сообщения
Вы не можете редактировать свои сообщения
Вы не можете удалять свои сообщения
Вы не можете голосовать в опросах
Вы не можете прикреплять файлы к сообщениям
Вы не можете скачивать файлы