Любовь / Love (Гаспар Ноэ / Gaspar Noé) [2015, Франция, Бельгия, драма, мелодрама, HDRip] MVO (Line)


 

[Цитировать]

--Любовь / Love--«Мы заставим мужчин возбудиться, а девушек плакать»- Страна: Франция, Бельгия
Жанр: драма, мелодрама
Год выпуска: 2015
Продолжительность: 02:09:23-Перевод: Профессиональный (многоголосый закадровый) Line
Cубтитры: нет
Режиссер: Гаспар Ноэ / Gaspar Noé-В ролях: Аоми Муйок, Карл Глусман, Клара Кристин, Хуан Сааведра, Гаспар Ноэ, Венсан Мараваль, Бенуа Дебиф, Isabelle Nicou, Стелла Роча
Описание: Любовь вне добра и зла. Любовь — это генетическая потребность. Это дар и проклятие. Любовь — это болезнь, наркотик. Это потеря и обретение себя. Любовь — это самое прекрасное и самое ужасное в нашей жизни. Любовь — это переплетение душ и соединение тел. «Любовь» — это возбуждающая сексуальная мелодрама о парне, девушке и еще одной девушке...-| Сэмпл | IMDB | КиноПоиск |-Качество видео: HDRip
Формат видео: AVI
Видео: 720x304 (2.37:1), 25 fps, XviD build 50 ~1885 kbps avg, 0.34 bit/pixel
Аудио: 48 kHz, AC3 Dolby Digital, 2/0 (L,R) ch, ~384 kbps

MediaInfo

General
Полное имя : D:\MOVIES\LoVE.2015.P.HDRip.2100Mb.avi
Формат : AVI
Формат/Информация : Audio Video Interleave
Профиль формата : OpenDML
Размер файла : 2.06 GiB
Продолжительность : 2h 9mn
Общий поток : 2 276 Kbps
Программа кодирования : VirtualDubMod 1.5.10.2 (build 2540/release)
Библиотека кодирования : VirtualDubMod build 2540/release
Video
Идентификатор : 0
Формат : MPEG-4 Visual
Профиль формата : Advanced Simple@L5
Параметр BVOP формата : 2
Параметр QPel формата : No
Параметр GMC формата : No warppoints
Параметр матрицы формата : Custom
Идентификатор кодека : XVID
Идентификатор кодека/Подсказка : XviD
Продолжительность : 2h 9mn
Битрейт : 1 880 Kbps
Ширина : 720 pixels
Высота : 304 pixels
Соотношение сторон : 2.35:1
Частота кадров : 25.000 fps
Цветовое пространство : YUV
Субдискретизация насыщенности : 4:2:0
Битовая глубина : 8 bits
Тип развёртки : Progressive
Метод сжатия : Lossy
Бит/(Пиксели*Кадры) : 0.343
Размер потока : 1.70 GiB (83%)
Библиотека кодирования : XviD 1.2.1 (UTC 2008-12-04)
Audio
Идентификатор : 1
Формат : AC-3
Формат/Информация : Audio Coding 3
Расширение режима : CM (complete main)
Параметр Endianness формата : Big
Идентификатор кодека : 2000
Продолжительность : 2h 9mn
Вид битрейта : Constant
Битрейт : 384 Kbps
Каналы : 2 channels
Расположение каналов : Front: L R
Частота : 48.0 KHz
Метод сжатия : Lossy
Размер потока : 355 MiB (17%)
Выравнивание : Split accross interleaves
Продолжительность промежутка : 40 ms (1.00 video frame)
Время предзагрузки промежутка : 500 ms

Скриншот c названием фильма

Скриншоты




Показать сообщения:    

Текущее время: 09-Дек 03:01

Часовой пояс: UTC + 3


Вы не можете начинать темы
Вы не можете отвечать на сообщения
Вы не можете редактировать свои сообщения
Вы не можете удалять свои сообщения
Вы не можете голосовать в опросах
Вы не можете прикреплять файлы к сообщениям
Вы не можете скачивать файлы