Джузеппе Верди - Жанна д’Арк (Анна Нетребко) / Giuseppe Verdi - Giovanna d’Arco (Anna Netrebko, Francesco Meli, Devid Cecconi, Dmitry Beloselskiy) [2015, Opera, HDTVRip-AVC 720p] Sub [Русские][French hardsub]


 

[Цитировать]

-Премьера нового сезона в Ла Скала!
Джузеппе Верди
10 октября (October 10,) 1813 — 27 января (January 27,) 1901
1845 »«ЖАННА д'АРК»« 2015
Либретто Темистокле Солера по мотивам драмы Ф. Шиллера "Орлеaнская дева"
--

ПОСТАНОВКА Моше ЛЯЙЗЕР и Патрис КОРЬЕ
Moshe Leiser & Patrice Caurier

Год записи: 2015
Лейбл: ARTE
Жанр: Opera
Язык: Итальянский
Субтитры/Subtitles: РУССКИЕ ("Культура"),
French hardsub
Продолжительность: 128 min.
Исполнители:
ЖАННА Анна НЕТРЕБКО Anna Netrebko
КАРЛ VII Франческо МЕЛИ Matti Salminen
ДЖАКОМО Девид ЧЕККОНИ Devid Cecconi
ДЕЛИЛ Микеле МАУРО Michele Mauro
ТАЛЬБОТ Дмитрий БЕЛОСЕЛЬСКИЙ Dmitry Beloselskiy
ХОР и ОРКЕСТР театра "Ла Скала"
ДИРИЖЁР Риккардо ШАЙИ Riccardo Chailly

Качество видео: HDTVRip-AVC
Исходник: FHD [Спасибо, akacha88]
Контейнер: MKV
Видео кодек: H.264
Аудио кодек: AC3
Видео поток: 1280x720, 4000 kbps, 25,000 fps.
Аудио поток: Italian, 448 kbps, 48,0 KHz, 16 bit, 2 ch original
Особая благодарность солнечной lesik689 за видео запись эфира телеканала "Культура"

Скриншоты

MediaInfo


-

x264.log


avs [info]: 1280x720p 1:1 @ 25/1 fps (cfr)
x264 [info]: using SAR=1/1
x264 [info]: using cpu capabilities: MMX2 SSE2Fast LZCNT
x264 [info]: profile High, level 4.1
x264 [info]: frame I:1120 Avg QP:13.29 size: 89554
x264 [info]: frame P:84246 Avg QP:16.24 size: 33469
x264 [info]: frame B:107517 Avg QP:18.25 size: 8722
x264 [info]: consecutive B-frames: 13.0% 31.2% 20.7% 35.1%
x264 [info]: mb I I16..4: 8.4% 65.2% 26.4%
x264 [info]: mb P I16..4: 3.2% 13.5% 2.2% P16..4: 36.8% 21.3% 11.7% 0.0% 0.0% skip:11.4%
x264 [info]: mb B I16..4: 0.2% 0.4% 0.1% B16..8: 37.7% 8.0% 1.6% direct:10.3% skip:41.6% L0:38.1% L1:51.5% BI:10.4%
x264 [info]: 8x8 transform intra:70.6% inter:67.7%
x264 [info]: direct mvs spatial:94.2% temporal:5.8%
x264 [info]: coded y,uvDC,uvAC intra: 48.8% 60.9% 42.7% inter: 22.9% 39.6% 5.3%
x264 [info]: i16 v,h,dc,p: 55% 25% 9% 11%
x264 [info]: i8 v,h,dc,ddl,ddr,vr,hd,vl,hu: 25% 14% 38% 3% 4% 4% 4% 4% 3%
x264 [info]: i4 v,h,dc,ddl,ddr,vr,hd,vl,hu: 35% 19% 21% 4% 6% 5% 4% 4% 3%
x264 [info]: i8c dc,h,v,p: 59% 17% 20% 5%
x264 [info]: Weighted P-Frames: Y:1.0% UV:0.5%
x264 [info]: ref P L0: 66.5% 8.8% 16.9% 7.7% 0.0%
x264 [info]: ref B L0: 88.9% 9.7% 1.3%
x264 [info]: ref B L1: 96.3% 3.7%
x264 [info]: kb/s:4000.06
-
General
Unique ID : 232086565266279317433910389592520772277 (0xAE9A3F1F7311298D8B07F68460ADCAB5)
Complete name : Verdi - Giovanna d'Arco (La Scala, 2015).mkv
Format : Matroska
Format version : Version 4 / Version 2
File size : 4.00 GiB
Duration : 2h 8mn
Overall bit rate : 4 450 Kbps
Encoded date : UTC 2015-12-10 15:02:46
Writing application : mkvmerge v8.3.0 ('Over the Horizon') 32bit
Writing library : libebml v1.3.1 + libmatroska v1.4.2
Video
ID : 1
Format : AVC
Format/Info : Advanced Video Codec
Format profile : High@L4.1
Format settings, CABAC : Yes
Format settings, ReFrames : 4 frames
Codec ID : V_MPEG4/ISO/AVC
Duration : 2h 8mn
Bit rate : 4 000 Kbps
Width : 1 280 pixels
Height : 720 pixels
Display aspect ratio : 16:9
Frame rate mode : Constant
Frame rate : 25.000 fps
Color space : YUV
Chroma subsampling : 4:2:0
Bit depth : 8 bits
Scan type : Progressive
Bits/(Pixel*Frame) : 0.174
Stream size : 3.51 GiB (88%)
Writing library : x264 core 148 r2638 7599210
Encoding settings : cabac=1 / ref=3 / deblock=1:0:0 / analyse=0x3:0x113 / me=hex / subme=7 / psy=1 / psy_rd=1.00:0.00 / mixed_ref=1 / me_range=16 / chroma_me=1 / trellis=1 / 8x8dct=1 / cqm=0 / deadzone=21,11 / fast_pskip=1 / chroma_qp_offset=-2 / threads=4 / lookahead_threads=1 / sliced_threads=0 / nr=0 / decimate=1 / interlaced=0 / bluray_compat=0 / constrained_intra=0 / bframes=3 / b_pyramid=2 / b_adapt=1 / b_bias=0 / direct=3 / weightb=1 / open_gop=0 / weightp=2 / keyint=250 / keyint_min=25 / scenecut=40 / intra_refresh=0 / rc_lookahead=40 / rc=2pass / mbtree=1 / bitrate=4000 / ratetol=1.0 / qcomp=0.60 / qpmin=0 / qpmax=69 / qpstep=4 / cplxblur=20.0 / qblur=0.5 / vbv_maxrate=50000 / vbv_bufsize=62500 / nal_hrd=none / filler=0 / ip_ratio=1.40 / aq=1:1.00
Default : Yes
Forced : No
Audio
ID : 2
Format : AC-3
Format/Info : Audio Coding 3
Mode extension : CM (complete main)
Format settings, Endianness : Big
Codec ID : A_AC3
Duration : 2h 8mn
Bit rate mode : Constant
Bit rate : 448 Kbps
Channel(s) : 2 channels
Channel positions : Front: L R
Sampling rate : 48.0 KHz
Compression mode : Lossy
Stream size : 412 MiB (10%)
Language : Italian
Default : Yes
Forced : No
Text
ID : 3
Format : ASS
Codec ID : S_TEXT/ASS
Codec ID/Info : Advanced Sub Station Alpha
Compression mode : Lossless
Language : Russian
Default : Yes
Forced : No



Показать сообщения:    

Текущее время: 03-Дек 14:32

Часовой пояс: UTC + 3


Вы не можете начинать темы
Вы не можете отвечать на сообщения
Вы не можете редактировать свои сообщения
Вы не можете удалять свои сообщения
Вы не можете голосовать в опросах
Вы не можете прикреплять файлы к сообщениям
Вы не можете скачивать файлы