Ингмар Бергман о фильме Вечер шутов / Ingmar Bergman - Gycklarnas afton (Sawdust and Tinsel) (Мари Нирерёд / Marie Nyrerod) [2003, документальный, кинематограф, DVDRip-AVC] Sub (Rus)


Статистика раздачи [Обновить пиров]
Размер:  40 MB   |    Зарегистрирован:  11 месяцев   |    Скачан:  0 раз

Полного источника не было: Никогда

 
   
 
 
 

[Цитировать]

Ингмар Бергман о фильме "Вечер шутов"
Ingmar Bergman - Gycklarnas afton (Sawdust and Tinsel)- Дата/Год выпуска: 2003
Страна: Швеция
Жанр: документальный, кинематограф
Продолжительность: 00:03:17
Перевод: Субтитры
Русские субтитры: есть
Формат субтитров: softsub (SRT)
Доп. информация о субтитрах: инициатор Алексей Проскуряков aka Aleks Punk
Оригинальная аудиодорожка: шведский
Режиссер: Мари Нирерёд / Marie NyrerödОписание: Небольшое интервью во время съемок документального фильма "Бергман и остров Форё / Bergman and Faro island" (2004) у Ингмара Бергмана берет режиссер Мари Нирерёд / Marie Nyreröd. Разговор идет о фильме "Вечер шутов".
Доп. информация: Исходник DVD9 (The Criterion Collection #412). За предоставленный материал благодарность Aleks Punk.

качество: DVDRip-AVC
формат: MKV
Видео: AVC (H.264), 624x352 (16:9), 23,976 fps, ~1500 kbps avg, 0.285 bit/pixel
Аудио: AC3, 2 ch, 48 kHz, 192 kbps

Пример субтитров

100:00:17,300 --> 00:00:21,300На вашу работу последовал отзыв,который вы помните наизусть.
200:00:21,701 --> 00:00:23,301Отзыв был очень короткий.Но при том он был таков:
300:00:24,300 --> 00:00:32,602"Я отказываюсь оценивать этуотрыжку господина Бергмана".
400:00:33,103 --> 00:00:35,900Что вы почувствовали,прочитав такое?
500:00:37,304 --> 00:00:43,600В то время я был еще оченьчувствителен к любой критике.
600:00:44,300 --> 00:00:50,300Хотя она не всегдабыла такого рода...
700:00:51,300 --> 00:00:58,300Но фильм был встречен прохладно...
800:01:00,300 --> 00:01:03,200Сам я считал, чтоснял хорошее кино.
900:01:03,300 --> 00:01:08,800Возможно, даже лучший мойфильм на тот момент.
1000:01:11,600 --> 00:01:16,900Но когда он вышел в прокат,он был встречен прохладно.
1100:01:17,600 --> 00:01:22,300Мне было жаль Сэндрювса, ведь онвложил в это кино очень большие деньги.
1200:01:22,303 --> 00:01:28,700Сьемки были долгими,масштабными и сложными.
1300:01:31,300 --> 00:01:39,300Но в те времена, каждый раз,когда я снимал кино,
1400:01:40,300 --> 00:01:45,300я пилил сук, на котором сидел.
1500:01:46,300 --> 00:01:50,300У меня не было финансовых гарантий,
1600:01:50,302 --> 00:01:55,300поэтому для меня было важно,чтобы фильм имел успех.
1700:01:56,300 --> 00:02:00,304Было важно мнение зрителей.
1800:02:01,300 --> 00:02:07,300Экономический аспектбыл очень важен.
1900:02:08,306 --> 00:02:12,300Бергман снял фильм,который хорошо прошел в прокате.
2000:02:12,300 --> 00:02:15,300Может, он ещё такойсможет снять.

MediaInfo

ОбщееУникальный идентификатор : 202708095134260778715202372807094936039 (0x988028B6C5973D58B7523188B9A3A1E7)Полное имя : H:\My Torrents\[apreder]Documentary_Shorts\[apreder]Ingmar_Bergman_Gycklarnas_afton(2003)DVDRip.mkvФормат : MatroskaВерсия формата : Version 2Размер файла : 40,2 МбайтПродолжительность : 3 м. 17 с.Общий поток : 1707 Кбит/секНазвание фильма : Ingmar Bergman - Gycklarnas aftonДата выпуска : 2003-00-00Дата кодирования : UTC 2015-12-10 14:05:54Программа кодирования : mkvmerge v8.6.1 ('Flying') 64bitБиблиотека кодирования : libebml v1.3.3 + libmatroska v1.4.4Attachements : cover.jpg / cover_small.jpgACTOR : Ingmar BergmanDIRECTOR : Marie NyrerödGENRE : DocumentaryKEYWORDS :LAW_RATING : 12+
ВидеоИдентификатор : 1Формат : AVCФормат/Информация : Advanced Video CodecПрофиль формата : High@L4.1Параметр CABAC формата : ДаПараметр ReFrames формата : 9 кадровИдентификатор кодека : V_MPEG4/ISO/AVCПродолжительность : 3 м. 17 с.Битрейт : 1500 Кбит/секШирина : 624 пикселяВысота : 352 пикселяСоотношение сторон : 16:9Режим частоты кадров : ПостоянныйЧастота кадров : 23,976 (24000/1001) кадра/секЦветовое пространство : YUVСубдискретизация насыщенности : 4:2:0Битовая глубина : 8 битТип развёртки : ПрогрессивнаяБит/(Пиксели*Кадры) : 0.285Размер потока : 34,9 Мбайт (87%)Библиотека кодирования : x264 core 148 r2638 7599210Настройки программы : cabac=1 / ref=9 / deblock=1:-1:-1 / analyse=0x3:0x133 / me=umh / subme=10 / psy=1 / psy_rd=1.00:0.15 / mixed_ref=1 / me_range=24 / chroma_me=1 / trellis=2 / 8x8dct=1 / cqm=0 / deadzone=21,11 / fast_pskip=1 / chroma_qp_offset=-3 / threads=11 / lookahead_threads=2 / sliced_threads=0 / nr=0 / decimate=1 / interlaced=0 / bluray_compat=0 / constrained_intra=0 / bframes=16 / b_pyramid=2 / b_adapt=2 / b_bias=0 / direct=3 / weightb=1 / open_gop=0 / weightp=2 / keyint=240 / keyint_min=23 / scenecut=40 / intra_refresh=0 / rc_lookahead=60 / rc=2pass / mbtree=1 / bitrate=1500 / ratetol=1.0 / qcomp=0.60 / qpmin=0 / qpmax=69 / qpstep=4 / cplxblur=20.0 / qblur=0.5 / vbv_maxrate=62500 / vbv_bufsize=78125 / nal_hrd=none / filler=0 / ip_ratio=1.40 / aq=1:1.00Default : ДаForced : Нет
АудиоИдентификатор : 2Формат : AC-3Формат/Информация : Audio Coding 3Расширение режима : CM (complete main)Параметр Endianness формата : BigИдентификатор кодека : A_AC3Продолжительность : 3 м. 17 с.Вид битрейта : ПостоянныйБитрейт : 192 Кбит/секКаналы : 1 каналРасположение каналов : Front: CЧастота : 48,0 КГцЧастота кадров : 31,250 кадров/сек (1536 spf)Метод сжатия : С потерямиРазмер потока : 4,52 Мбайт (11%)Язык : SwedishDefault : ДаForced : Нет
ТекстИдентификатор : 3Формат : UTF-8Идентификатор кодека : S_TEXT/UTF8Идентификатор кодека/Информация : UTF-8 Plain TextЯзык : RussianDefault : ДаForced : Нет

Скриншоты

Резервные скриншоты

- [2'758]
[teatrix.ru].t12152.torrent 
Торрент: Зарегистрирован [ 2015-12-10 23:00 ] · AE3A0F683EF37AB3CDBAB53D7A33C793A363E432

Скачать .torrent

Скачать

13 KB

Статус: проверено
Скачан: 0 раз
Размер: 40 MB
terms.php



Показать сообщения:    

Текущее время: 09-Дек 16:37

Часовой пояс: UTC + 3


Вы не можете начинать темы
Вы не можете отвечать на сообщения
Вы не можете редактировать свои сообщения
Вы не можете удалять свои сообщения
Вы не можете голосовать в опросах
Вы не можете прикреплять файлы к сообщениям
Вы можете скачивать файлы