(organ) Nicolas de Grigny (1672-1703) - Les Cinq Hymnes / Пять гимнов для органа, Louis Marchand (1669–1732) - Andre Isoir / Андре Изуар - 1996 (1972), FLAC (tracks+.cue) lossless


 

[Цитировать]

Nicolas de Grigny - Les Cinq Hymnes / Пять гимнов для органа - Andre Isoir
Жанр: organ
Страна-производитель диска: France
Год издания диска: 1996
Издатель (лейбл): Calliope
Номер по каталогу: CAL 6912
Дата записи: 1972
Аудиокодек: FLAC
Тип рипа: tracks+.cue
Битрейт аудио: lossless
Продолжительность: 1:15:50
Источник: релизер
сайт-источник/ник/другое: hixius
Наличие сканов в содержимом раздачи: да
Треклист:
Nicolas de Grigny (1672-1703)
Veni Creator
01. Veni Creator en taille 5
02. Fugue a 5
03. Duo
04. Récit de Cromorne
05. Dialogue sur les Grands Jeux
Ave Maris Stella
06. Ave Maris Stella
07. Fugue a 4
08. Duo
09. Dialogue sur les Grands Jeux
Pange Lingua
10. Pange Lingua en taille a 4
11. Fugue a 5
12. Récit du Chant de l'Hymne précédent
Verbum Supernum
13. Verbum Supernum
14. Fugue
15. Récit en dialogue
16. Récit de Basse de Trompette
A Solis Ortus
17. A Solis Ortus
18. Fugue a 5
19. Trio
20. Point d'Orgue sur les Grands Jeux
Louis Marchand (1669–1732)
21. Plein Jeu
22. Fugue
23. Basse de Trompette
24. Quatuor
25. Fond d'Orgue
26. Grand Dialogue
Исполнители:
André Isoir - orgue Isnard de la Basilique de Saint-Maximin de Provence

Лог создания рипа

Exact Audio Copy V1.0 beta 3 from 29. August 2011
EAC extraction logfile from 4. September 2015, 15:03
Nicolas de Grigny / Les Cinq Hymnes
Used drive : HL-DT-STDVDRAM GH24NSB0 Adapter: 5 ID: 0
Read mode : SecureUtilize accurate stream : YesDefeat audio cache : YesMake use of C2 pointers : No
Read offset correction : 6Overread into Lead-In and Lead-Out : NoFill up missing offset samples with silence : YesDelete leading and trailing silent blocks : NoNull samples used in CRC calculations : YesUsed interface : Native Win32 interface for Win NT & 2000Gap handling : Appended to previous track
Used output format : User Defined EncoderSelected bitrate : 1024 kBit/sQuality : HighAdd ID3 tag : NoCommand line compressor : C:\Program Files (x86)\Exact Audio Copy\Flac\flac.exeAdditional command line options : -8 -V -T "ARTIST=%artist%" -T "TITLE=%title%" -T "ALBUM=%albumtitle%" -T "DATE=%year%" -T "TRACKNUMBER=%tracknr%" -T "TOTALTRACKS=%numtracks%" -T "GENRE=%genre%" -T "ALBUMARTIST=%albumartist%" -T "ALBUM ARTIST=%albumartist%" -T "COMMENT=EAC Secure Mode, Test & Copy, AccurateRip, FLAC -8" %source%
TOC of the extracted CD
Track | Start | Length | Start sector | End sector --------------------------------------------------------- 1 | 0:00.32 | 2:34.70 | 32 | 11651 2 | 2:35.27 | 2:45.70 | 11652 | 24096 3 | 5:21.22 | 3:26.45 | 24097 | 39591 4 | 8:47.67 | 2:57.58 | 39592 | 52924 5 | 11:45.50 | 4:00.15 | 52925 | 70939 6 | 15:45.65 | 1:23.12 | 70940 | 77176 7 | 17:09.02 | 3:14.68 | 77177 | 91794 8 | 20:23.70 | 1:55.35 | 91795 | 100454 9 | 22:19.30 | 3:56.10 | 100455 | 118164 10 | 26:15.40 | 2:56.15 | 118165 | 131379 11 | 29:11.55 | 3:12.60 | 131380 | 145839 12 | 32:24.40 | 3:05.35 | 145840 | 159749 13 | 35:30.00 | 1:23.07 | 159750 | 165981 14 | 36:53.07 | 1:35.38 | 165982 | 173144 15 | 38:28.45 | 2:57.45 | 173145 | 186464 16 | 41:26.15 | 2:15.40 | 186465 | 196629 17 | 43:41.55 | 1:42.20 | 196630 | 204299 18 | 45:24.00 | 3:17.02 | 204300 | 219076 19 | 48:41.02 | 2:12.73 | 219077 | 229049 20 | 50:54.00 | 2:22.62 | 229050 | 239761 21 | 53:16.62 | 2:36.55 | 239762 | 251516 22 | 55:53.42 | 2:21.15 | 251517 | 262106 23 | 58:14.57 | 2:28.25 | 262107 | 273231 24 | 60:43.07 | 3:35.70 | 273232 | 289426 25 | 64:19.02 | 2:01.38 | 289427 | 298539 26 | 66:20.40 | 9:30.25 | 298540 | 341314
Track 1
Filename C:\EAC\01 - Nicolas de Grigny - Veni Creator - Veni Creator en taille 5.wav
Pre-gap length 0:00:02.32
Peak level 56.9 % Extraction speed 1.0 X Track quality 100.0 % Test CRC D303BF29 Copy CRC D303BF29 Accurately ripped (confidence 4) [8C309957] (AR v1) Copy OK
Track 2
Filename C:\EAC\02 - Nicolas de Grigny - Veni Creator - Fugue a 5.wav
Peak level 30.2 % Extraction speed 1.1 X Track quality 100.0 % Test CRC 1CB95824 Copy CRC 1CB95824 Accurately ripped (confidence 4) [6A8550FD] (AR v1) Copy OK
Track 3
Filename C:\EAC\03 - Nicolas de Grigny - Veni Creator - Duo.wav
Peak level 22.6 % Extraction speed 1.3 X Track quality 100.0 % Test CRC 1DEDB220 Copy CRC 1DEDB220 Accurately ripped (confidence 4) [976B89BF] (AR v1) Copy OK
Track 4
Filename C:\EAC\04 - Nicolas de Grigny - Veni Creator - Recit de Cromorne.wav
Peak level 12.5 % Extraction speed 1.3 X Track quality 100.0 % Test CRC 8BB45AA9 Copy CRC 8BB45AA9 Accurately ripped (confidence 4) [86770012] (AR v1) Copy OK
Track 5
Filename C:\EAC\05 - Nicolas de Grigny - Veni Creator - Dialogue sur les Grands Jeux.wav
Peak level 79.3 % Extraction speed 1.5 X Track quality 100.0 % Test CRC 9CA45B21 Copy CRC 9CA45B21 Accurately ripped (confidence 4) [54F9E39A] (AR v1) Copy OK
Track 6
Filename C:\EAC\06 - Nicolas de Grigny - Ave Maris Stella - Ave Maris Stella.wav
Pre-gap length 0:00:02.25
Peak level 40.4 % Extraction speed 1.2 X Track quality 100.0 % Test CRC 64637918 Copy CRC 64637918 Accurately ripped (confidence 4) [95616846] (AR v1) Copy OK
Track 7
Filename C:\EAC\07 - Nicolas de Grigny - Ave Maris Stella - Fugue a 4.wav
Peak level 19.4 % Extraction speed 1.5 X Track quality 100.0 % Test CRC 69BCA802 Copy CRC 69BCA802 Accurately ripped (confidence 4) [B98A9F5B] (AR v1) Copy OK
Track 8
Filename C:\EAC\08 - Nicolas de Grigny - Ave Maris Stella - Duo.wav
Peak level 17.8 % Extraction speed 1.4 X Track quality 100.0 % Test CRC BFD0D84A Copy CRC BFD0D84A Accurately ripped (confidence 4) [6C05F51F] (AR v1) Copy OK
Track 9
Filename C:\EAC\09 - Nicolas de Grigny - Ave Maris Stella - Dialogue sur les Grands Jeux.wav
Peak level 58.1 % Extraction speed 1.7 X Track quality 100.0 % Test CRC B44E8B47 Copy CRC B44E8B47 Accurately ripped (confidence 4) [0703B03D] (AR v1) Copy OK
Track 10
Filename C:\EAC\10 - Nicolas de Grigny - Pange Lingua - Pange Lingua en taille a 4.wav
Peak level 38.8 % Extraction speed 1.7 X Track quality 100.0 % Test CRC 8AD83DE6 Copy CRC 8AD83DE6 Accurately ripped (confidence 3) [A3332BBE] (AR v1) Copy OK
Track 11
Filename C:\EAC\11 - Nicolas de Grigny - Pange Lingua - Fugue a 5.wav
Peak level 20.3 % Extraction speed 1.8 X Track quality 100.0 % Test CRC 029DCCC5 Copy CRC 029DCCC5 Accurately ripped (confidence 4) [0E8958AC] (AR v1) Copy OK
Track 12
Filename C:\EAC\12 - Nicolas de Grigny - Pange Lingua - Recit du Chant de l'Hymne precedent.wav
Peak level 19.1 % Extraction speed 1.8 X Track quality 100.0 % Test CRC C55B6BF4 Copy CRC C55B6BF4 Accurately ripped (confidence 3) [ED6B7629] (AR v1) Copy OK
Track 13
Filename C:\EAC\13 - Nicolas de Grigny - Verbum Supernum - Verbum Supernum.wav
Peak level 33.7 % Extraction speed 1.5 X Track quality 100.0 % Test CRC 7DC23A82 Copy CRC 7DC23A82 Accurately ripped (confidence 4) [FD00C876] (AR v1) Copy OK
Track 14
Filename C:\EAC\14 - Nicolas de Grigny - Verbum Supernum - Fugue.wav
Peak level 27.8 % Extraction speed 1.6 X Track quality 100.0 % Test CRC AB5F45C9 Copy CRC AB5F45C9 Accurately ripped (confidence 3) [B782922D] (AR v1) Copy OK
Track 15
Filename C:\EAC\15 - Nicolas de Grigny - Verbum Supernum - Recit en dialogue.wav
Peak level 12.2 % Extraction speed 1.6 X Track quality 99.9 % Test CRC A856A5E0 Copy CRC A856A5E0 Accurately ripped (confidence 3) [6D4684A8] (AR v1) Copy OK
Track 16
Filename C:\EAC\16 - Nicolas de Grigny - Verbum Supernum - Recit de Basse de Trompette.wav
Peak level 14.6 % Extraction speed 1.8 X Track quality 100.0 % Test CRC F493C7CB Copy CRC F493C7CB Accurately ripped (confidence 3) [0DAE9A75] (AR v1) Copy OK
Track 17
Filename C:\EAC\17 - Nicolas de Grigny - A Solis Ortus - A Solis Ortus.wav
Pre-gap length 0:00:02.43
Peak level 35.7 % Extraction speed 1.3 X Track quality 99.8 % Test CRC 31E4A67C Copy CRC 31E4A67C Accurately ripped (confidence 3) [442525DC] (AR v1) Copy OK
Track 18
Filename C:\EAC\18 - Nicolas de Grigny - A Solis Ortus - Fugue a 5.wav
Peak level 21.2 % Extraction speed 2.1 X Track quality 100.0 % Test CRC 22E151D3 Copy CRC 22E151D3 Accurately ripped (confidence 3) [7C2EBA06] (AR v1) Copy OK
Track 19
Filename C:\EAC\19 - Nicolas de Grigny - A Solis Ortus - Trio.wav
Peak level 10.2 % Extraction speed 1.9 X Track quality 100.0 % Test CRC 24EC7345 Copy CRC 24EC7345 Accurately ripped (confidence 3) [0AFB5C6A] (AR v1) Copy OK
Track 20
Filename C:\EAC\20 - Nicolas de Grigny - A Solis Ortus - Point d'Orgue sur les Grands Jeux.wav
Peak level 55.0 % Extraction speed 2.0 X Track quality 100.0 % Test CRC 6724676F Copy CRC 6724676F Accurately ripped (confidence 3) [096F225B] (AR v1) Copy OK
Track 21
Filename C:\EAC\21 - Louis Marchand - Plein Jeu.wav
Pre-gap length 0:00:02.10
Peak level 51.2 % Extraction speed 2.0 X Track quality 100.0 % Test CRC 9993C8F6 Copy CRC 9993C8F6 Accurately ripped (confidence 3) [202867FD] (AR v1) Copy OK
Track 22
Filename C:\EAC\22 - Louis Marchand - Fugue.wav
Peak level 51.8 % Extraction speed 2.1 X Track quality 100.0 % Test CRC 6B0706CF Copy CRC 6B0706CF Accurately ripped (confidence 3) [5A15B5D5] (AR v1) Copy OK
Track 23
Filename C:\EAC\23 - Louis Marchand - Basse de Trompette.wav
Peak level 27.3 % Extraction speed 2.1 X Track quality 100.0 % Test CRC CE74349B Copy CRC CE74349B Accurately ripped (confidence 3) [A40C48F0] (AR v1) Copy OK
Track 24
Filename C:\EAC\24 - Louis Marchand - Quatuor.wav
Peak level 17.9 % Extraction speed 2.3 X Track quality 100.0 % Test CRC 429A964A Copy CRC 429A964A Accurately ripped (confidence 3) [58920605] (AR v1) Copy OK
Track 25
Filename C:\EAC\25 - Louis Marchand - Fond d'Orgue.wav
Peak level 39.0 % Extraction speed 1.7 X Track quality 99.9 % Test CRC 4674661F Copy CRC 4674661F Accurately ripped (confidence 3) [070F72C4] (AR v1) Copy OK
Track 26
Filename C:\EAC\26 - Louis Marchand - Grand Dialogue.wav
Peak level 58.0 % Extraction speed 2.7 X Track quality 100.0 % Test CRC 17909385 Copy CRC 17909385 Accurately ripped (confidence 3) [232094B2] (AR v1) Copy OK
All tracks accurately ripped
No errors occurred
End of status report
==== Log checksum 30A58BE60D2A11CF5DF2D927B6DE44883C22FE90CB3C5F9D217F67A8657019AC ====

Содержание индексной карты (.CUE)

REM GENRE OrgueREM DATE 1996REM DISCID 7911C61AREM COMMENT "ExactAudioCopy v1.0b3"PERFORMER "Nicolas de Grigny"TITLE "Les Cinq Hymnes"FILE "01 - Nicolas de Grigny - Veni Creator - Veni Creator en taille 5.wav" WAVE TRACK 01 AUDIO TITLE "Veni Creator - Veni Creator en taille 5" PERFORMER "Nicolas de Grigny" PREGAP 00:00:32 INDEX 01 00:00:00FILE "02 - Nicolas de Grigny - Veni Creator - Fugue a 5.wav" WAVE TRACK 02 AUDIO TITLE "Veni Creator - Fugue a 5" PERFORMER "Nicolas de Grigny" INDEX 01 00:00:00FILE "03 - Nicolas de Grigny - Veni Creator - Duo.wav" WAVE TRACK 03 AUDIO TITLE "Veni Creator - Duo" PERFORMER "Nicolas de Grigny" INDEX 01 00:00:00FILE "04 - Nicolas de Grigny - Veni Creator - Recit de Cromorne.wav" WAVE TRACK 04 AUDIO TITLE "Veni Creator - Recit de Cromorne" PERFORMER "Nicolas de Grigny" INDEX 01 00:00:00FILE "05 - Nicolas de Grigny - Veni Creator - Dialogue sur les Grands Jeux.wav" WAVE TRACK 05 AUDIO TITLE "Veni Creator - Dialogue sur les Grands Jeux" PERFORMER "Nicolas de Grigny" INDEX 01 00:00:00 TRACK 06 AUDIO TITLE "Ave Maris Stella - Ave Maris Stella" PERFORMER "Nicolas de Grigny" INDEX 00 03:57:65FILE "06 - Nicolas de Grigny - Ave Maris Stella - Ave Maris Stella.wav" WAVE INDEX 01 00:00:00FILE "07 - Nicolas de Grigny - Ave Maris Stella - Fugue a 4.wav" WAVE TRACK 07 AUDIO TITLE "Ave Maris Stella - Fugue a 4" PERFORMER "Nicolas de Grigny" INDEX 01 00:00:00FILE "08 - Nicolas de Grigny - Ave Maris Stella - Duo.wav" WAVE TRACK 08 AUDIO TITLE "Ave Maris Stella - Duo" PERFORMER "Nicolas de Grigny" INDEX 01 00:00:00FILE "09 - Nicolas de Grigny - Ave Maris Stella - Dialogue sur les Grands Jeux.wav" WAVE TRACK 09 AUDIO TITLE "Ave Maris Stella - Dialogue sur les Grands Jeux" PERFORMER "Nicolas de Grigny" INDEX 01 00:00:00FILE "10 - Nicolas de Grigny - Pange Lingua - Pange Lingua en taille a 4.wav" WAVE TRACK 10 AUDIO TITLE "Pange Lingua - Pange Lingua en taille a 4" PERFORMER "Nicolas de Grigny" INDEX 01 00:00:00FILE "11 - Nicolas de Grigny - Pange Lingua - Fugue a 5.wav" WAVE TRACK 11 AUDIO TITLE "Pange Lingua - Fugue a 5" PERFORMER "Nicolas de Grigny" INDEX 01 00:00:00FILE "12 - Nicolas de Grigny - Pange Lingua - Recit du Chant de l'Hymne precedent.wav" WAVE TRACK 12 AUDIO TITLE "Pange Lingua - Recit du Chant de l'Hymne precedent" PERFORMER "Nicolas de Grigny" INDEX 01 00:00:00FILE "13 - Nicolas de Grigny - Verbum Supernum - Verbum Supernum.wav" WAVE TRACK 13 AUDIO TITLE "Verbum Supernum - Verbum Supernum" PERFORMER "Nicolas de Grigny" INDEX 01 00:00:00FILE "14 - Nicolas de Grigny - Verbum Supernum - Fugue.wav" WAVE TRACK 14 AUDIO TITLE "Verbum Supernum - Fugue" PERFORMER "Nicolas de Grigny" INDEX 01 00:00:00FILE "15 - Nicolas de Grigny - Verbum Supernum - Recit en dialogue.wav" WAVE TRACK 15 AUDIO TITLE "Verbum Supernum - Recit en dialogue" PERFORMER "Nicolas de Grigny" INDEX 01 00:00:00FILE "16 - Nicolas de Grigny - Verbum Supernum - Recit de Basse de Trompette.wav" WAVE TRACK 16 AUDIO TITLE "Verbum Supernum - Recit de Basse de Trompette" PERFORMER "Nicolas de Grigny" INDEX 01 00:00:00 TRACK 17 AUDIO TITLE "A Solis Ortus - A Solis Ortus" PERFORMER "Nicolas de Grigny" INDEX 00 02:12:72FILE "17 - Nicolas de Grigny - A Solis Ortus - A Solis Ortus.wav" WAVE INDEX 01 00:00:00FILE "18 - Nicolas de Grigny - A Solis Ortus - Fugue a 5.wav" WAVE TRACK 18 AUDIO TITLE "A Solis Ortus - Fugue a 5" PERFORMER "Nicolas de Grigny" INDEX 01 00:00:00FILE "19 - Nicolas de Grigny - A Solis Ortus - Trio.wav" WAVE TRACK 19 AUDIO TITLE "A Solis Ortus - Trio" PERFORMER "Nicolas de Grigny" INDEX 01 00:00:00FILE "20 - Nicolas de Grigny - A Solis Ortus - Point d'Orgue sur les Grands Jeux.wav" WAVE TRACK 20 AUDIO TITLE "A Solis Ortus - Point d'Orgue sur les Grands Jeux" PERFORMER "Nicolas de Grigny" INDEX 01 00:00:00 TRACK 21 AUDIO TITLE "Plein Jeu" PERFORMER "Louis Marchand" INDEX 00 02:20:52FILE "21 - Louis Marchand - Plein Jeu.wav" WAVE INDEX 01 00:00:00FILE "22 - Louis Marchand - Fugue.wav" WAVE TRACK 22 AUDIO TITLE "Fugue" PERFORMER "Louis Marchand" INDEX 01 00:00:00FILE "23 - Louis Marchand - Basse de Trompette.wav" WAVE TRACK 23 AUDIO TITLE "Basse de Trompette" PERFORMER "Louis Marchand" INDEX 01 00:00:00FILE "24 - Louis Marchand - Quatuor.wav" WAVE TRACK 24 AUDIO TITLE "Quatuor" PERFORMER "Louis Marchand" INDEX 01 00:00:00FILE "25 - Louis Marchand - Fond d'Orgue.wav" WAVE TRACK 25 AUDIO TITLE "Fond d'Orgue" PERFORMER "Louis Marchand" INDEX 01 00:00:00FILE "26 - Louis Marchand - Grand Dialogue.wav" WAVE TRACK 26 AUDIO TITLE "Grand Dialogue" PERFORMER "Louis Marchand" INDEX 01 00:00:00

Лог проверки качества

AUDIOCHECKER v2.0 beta (build 457) - by Dester - opdester@freemail.hu~~~~~~~~~~~~~~~~~~~~~~~~~~~~~~~~~~-=== DO NOT EDIT THIS FILE! ===-
Path: ...\Nicolas de Grigny - Les Cinq Hymnes (Andre Isoir) (1996) (1972) [FLAC]
01 -=- 01 - Nicolas de Grigny - Veni Creator - Veni Creator en taille 5.flac -=- CDDA (100%)02 -=- 02 - Nicolas de Grigny - Veni Creator - Fugue a 5.flac -=- CDDA (100%)03 -=- 03 - Nicolas de Grigny - Veni Creator - Duo.flac -=- CDDA (100%)04 -=- 04 - Nicolas de Grigny - Veni Creator - Recit de Cromorne.flac -=- CDDA (100%)05 -=- 05 - Nicolas de Grigny - Veni Creator - Dialogue sur les Grands Jeux.flac -=- CDDA (100%)06 -=- 06 - Nicolas de Grigny - Ave Maris Stella - Ave Maris Stella.flac -=- CDDA (100%)07 -=- 07 - Nicolas de Grigny - Ave Maris Stella - Fugue a 4.flac -=- CDDA (99%)08 -=- 08 - Nicolas de Grigny - Ave Maris Stella - Duo.flac -=- CDDA (100%)09 -=- 09 - Nicolas de Grigny - Ave Maris Stella - Dialogue sur les Grands Jeux.flac -=- CDDA (99%)10 -=- 10 - Nicolas de Grigny - Pange Lingua - Pange Lingua en taille a 4.flac -=- CDDA (100%)11 -=- 11 - Nicolas de Grigny - Pange Lingua - Fugue a 5.flac -=- CDDA (99%)12 -=- 12 - Nicolas de Grigny - Pange Lingua - Recit du Chant de l'Hymne precedent.flac -=- CDDA (99%)13 -=- 13 - Nicolas de Grigny - Verbum Supernum - Verbum Supernum.flac -=- CDDA (100%)14 -=- 14 - Nicolas de Grigny - Verbum Supernum - Fugue.flac -=- CDDA (100%)15 -=- 15 - Nicolas de Grigny - Verbum Supernum - Recit en dialogue.flac -=- CDDA (99%)16 -=- 16 - Nicolas de Grigny - Verbum Supernum - Recit de Basse de Trompette.flac -=- CDDA (100%)17 -=- 17 - Nicolas de Grigny - A Solis Ortus - A Solis Ortus.flac -=- CDDA (100%)18 -=- 18 - Nicolas de Grigny - A Solis Ortus - Fugue a 5.flac -=- CDDA (99%)19 -=- 19 - Nicolas de Grigny - A Solis Ortus - Trio.flac -=- CDDA (100%)20 -=- 20 - Nicolas de Grigny - A Solis Ortus - Point d'Orgue sur les Grands Jeux.flac -=- CDDA (100%)21 -=- 21 - Louis Marchand - Plein Jeu.flac -=- CDDA (100%)22 -=- 22 - Louis Marchand - Fugue.flac -=- CDDA (100%)23 -=- 23 - Louis Marchand - Basse de Trompette.flac -=- CDDA (100%)24 -=- 24 - Louis Marchand - Quatuor.flac -=- CDDA (100%)25 -=- 25 - Louis Marchand - Fond d'Orgue.flac -=- CDDA (100%)26 -=- 26 - Louis Marchand - Grand Dialogue.flac -=- CDDA (100%)
Summary 99,77% CDDA
147078708

Скриншот спектра частот




Показать сообщения:    

Текущее время: 11-Дек 14:54

Часовой пояс: UTC + 3


Вы не можете начинать темы
Вы не можете отвечать на сообщения
Вы не можете редактировать свои сообщения
Вы не можете удалять свои сообщения
Вы не можете голосовать в опросах
Вы не можете прикреплять файлы к сообщениям
Вы не можете скачивать файлы