Пьетро / Pietro (Даниэле Гальяноне / Daniele Gaglianone) [2010, Италия, Драма, DVDRip] + Sub Rus + Original Ita


Статистика раздачи [Обновить пиров]
Размер:  1.1 GB   |    Зарегистрирован:  11 месяцев 24 дня   |    Скачан:  0 раз

Полного источника не было: Никогда

 
   
 
 
 

[Цитировать]

Пьетро / Pietro
Страна: Италия
Жанр: Драма
Год выпуска: 2010
Продолжительность: 01:15:28
Перевод: Субтитры
Cубтитры: русские (.srt), французские (.idx), английские (.sub)
Оригинальная аудиодорожка: итальянский
Режиссер: Даниэле Гальяноне / Daniele Gaglianone
В ролях: Диего Кантери / Diego Canteri, Пьетро Казелла / Pietro Casella, Франческо Латтаруло / Francesco Lattarulo
Описание: Пьетро живет на окраине города. Вместе с ним квартиру делит его брат, отношения с которым включают в себя всё, кроме взаимопонимания. Работает Пьетро на улице, раздавая листовки и регулярно получая оплеухи от своего босса. Кажется, жизнь Пьетро зашла в тупик, но судьба знакомит его с девушкой. Может, она и есть тот "ключик", способный приоткрыть дверь в другой мир?
Сэмпл: http://sendfile.su/1182115
Качество видео: DVDRip
Формат видео: AVI
Видео: 1 617 Kbps, 704*352 (2.00), at 25.000 fps, MPEG-4 Visual (XviD)(Advanced Simple@L5)(BVOP1)
Аудио: 448 Kbps, 48.0 KHz, 16 bits, 6 channels, AC-3
Формат субтитров: softsub (SRT)

MediaInfo

General
Complete name : C:\Users\Никита\Desktop\PIETRO\PIETRO.avi
Format : AVI
Format/Info : Audio Video Interleave
File size : 1.09 GiB
Duration : 1h 15mn
Overall bit rate : 2 075 Kbps
Writing application : VirtualDubMod 1.5.10.3 | www.virtualdub-fr.org || (build 2550/release)
Writing library : VirtualDubMod build 2550/release
Video
ID : 0
Format : MPEG-4 Visual
Format profile : Advanced Simple@L5
Format settings, BVOP : 1
Format settings, QPel : No
Format settings, GMC : No warppoints
Format settings, Matrix : Default (MPEG)
Codec ID : XVID
Codec ID/Hint : XviD
Duration : 1h 15mn
Bit rate : 1 617 Kbps
Width : 704 pixels
Height : 352 pixels
Display aspect ratio : 2.000
Frame rate : 25.000 fps
Color space : YUV
Chroma subsampling : 4:2:0
Bit depth : 8 bits
Scan type : Progressive
Compression mode : Lossy
Bits/(Pixel*Frame) : 0.261
Stream size : 873 MiB (78%)
Writing library : XviD 1.2.1 (UTC 2008-12-04)
Audio
ID : 1
Format : AC-3
Format/Info : Audio Coding 3
Mode extension : CM (complete main)
Format settings, Endianness : Big
Codec ID : 2000
Duration : 1h 15mn
Bit rate mode : Constant
Bit rate : 448 Kbps
Channel(s) : 6 channels
Channel positions : Front: L C R, Side: L R, LFE
Sampling rate : 48.0 KHz
Bit depth : 16 bits
Compression mode : Lossy
Stream size : 242 MiB (22%)
Alignment : Split accross interleaves
Interleave, duration : 40 ms (1.00 video frame)
Interleave, preload duration : 500 ms

Скриншот c названием фильма

Скриншоты

[teatrix.ru].t12155.torrent 
Торрент: Зарегистрирован [ 2015-12-10 23:00 ] · E8439631AB400073A85A48CFFA060CA8A49C9758

Скачать .torrent

Скачать

12 KB

Статус: проверено
Скачан: 0 раз
Размер: 1.1 GB
terms.php



Быстрый ответ

Имя:

      
Для отправки сообщений необходимо включить JavaScript
Показать сообщения:    

Текущее время: 04-Дек 17:18

Часовой пояс: UTC + 3


Вы можете начинать темы
Вы можете отвечать на сообщения
Вы не можете редактировать свои сообщения
Вы не можете удалять свои сообщения
Вы не можете голосовать в опросах
Вы не можете прикреплять файлы к сообщениям
Вы можете скачивать файлы