(Classical) Baroque Music from Finland - Tuuli Lindeberg, Opus X, Petri Tapio Mattson - 2015, FLAC (image+.cue) lossless


 

[Цитировать]

Baroque Music from Finland - Tuuli Lindeberg, Opus X, Petri Tapio Mattson
Жанр: Classical
Страна-производитель диска: Finland
Год издания диска: 2015
Издатель (лейбл): Alba Records
Номер по каталогу: ABCD 373
Дата записи: 2010
Аудиокодек: FLAC
Тип рипа: image+.cue
Битрейт аудио: lossless
Продолжительность: 56:51
Источник: собственный рип
Наличие сканов в содержимом раздачи: да
Треклист:
Gabriel Hannelius manuscript: Pieces for solo flute
[1] Menuett (No.10)
[2] Menuett (No.6)
[3] Andreas Hammerschmidt: Sei nun wieder zufrieden, meine Seele
Isaac Wasbohm manuscript: Pieces for 1-2 descant instruments & basso continuo
[4] Allemand (No.96)
[5] Saraband (No.8)
[6] Poloness (No.29)
[7] Gavott l'amour (No.26)
[8] Minuett (No.83)
[9] Gustav Düben: En kort Bröllop-Sång
Catharina Öhrbom manuscript: Pieces for harpsichord
[10] Menuette (No.9)
[11] Marche (No.4)
[12] Polonoise (No.14)
Gabriel Hannelius manuscript: Pieces for solo flute
[13] Gigue (No.11)
[14] Menuett (No.23)
Isaac Wasbohm manuscript: Pieces for 1-2 descant instruments & basso continuo
[15] Leya Allemand (No.98)
[16] Air (No.53)
[17] Gavotte (No.63)
[18] Poloness & proportio (No.90)
[19] Minuet (No.79)
Catharina Öhrbom manuscript: Pieces for harpsichord
[20] Petzin (No.3)
[21] Anti Melancholie (No.8)
[22] Zachris Palm: Een Liften Fröghde-Sång
Isaac Wasbohm manuscript: Pieces for 1-2 descant instruments & basso continuo
[23] Gavotte (No.86)
[24] Minuet (No.80)
[25] Rigadon (No.75)
[26] Poloness (No.91)
[27] Minuet (No.82)
[28] Andreas Hammerschmidt: Es danken dir, Gott, die Völker
Gabriel Hannelius manuscript: Pieces for solo flute
[29] Menuett (No.22)
[30] (Gigue) (No.15)
[31]-[34] Johan Heinrich Roman: Sonata in D major for violin & basso continuo
Gabriel Hannelius manuscript: Pieces for solo flute
[35] Menuett (No.3)
[36] Menuett (No.19)
Исполнители:
Tuuli Lindeberg soprano
Opus X
Petri Tapio Mattson
artistic direction

Лог создания рипа

Exact Audio Copy V1.0 beta 3 from 29. August 2011
EAC extraction logfile from 10. April 2015, 1:48
Opus X, Petri Tapio Mattson / Baroque Music from Finland
Used drive : HL-DT-STDVDRAM GU70N Adapter: 0 ID: 0
Read mode : SecureUtilize accurate stream : YesDefeat audio cache : YesMake use of C2 pointers : No
Read offset correction : 48Overread into Lead-In and Lead-Out : NoFill up missing offset samples with silence : YesDelete leading and trailing silent blocks : NoNull samples used in CRC calculations : YesUsed interface : Native Win32 interface for Win NT & 2000
Used output format : User Defined EncoderSelected bitrate : 128 kBit/sQuality : HighAdd ID3 tag : NoCommand line compressor : C:\Program Files (x86)\Exact Audio Copy\Flac\flac.exeAdditional command line options : -V -8 -T "Date=%year%" -T "Genre=%genre%" %source%
TOC of the extracted CD
Track | Start | Length | Start sector | End sector --------------------------------------------------------- 1 | 0:00.00 | 0:50.23 | 0 | 3772 2 | 0:50.23 | 1:15.67 | 3773 | 9464 3 | 2:06.15 | 1:53.45 | 9465 | 17984 4 | 3:59.60 | 1:48.47 | 17985 | 26131 5 | 5:48.32 | 1:28.16 | 26132 | 32747 6 | 7:16.48 | 0:40.72 | 32748 | 35819 7 | 7:57.45 | 0:53.21 | 35820 | 39815 8 | 8:50.66 | 1:14.55 | 39816 | 45420 9 | 10:05.46 | 5:32.28 | 45421 | 70348 10 | 15:37.74 | 0:56.73 | 70349 | 74621 11 | 16:34.72 | 0:42.67 | 74622 | 77838 12 | 17:17.64 | 0:56.04 | 77839 | 82042 13 | 18:13.68 | 1:42.61 | 82043 | 89753 14 | 19:56.54 | 1:09.62 | 89754 | 94990 15 | 21:06.41 | 1:07.13 | 94991 | 100028 16 | 22:13.54 | 1:20.06 | 100029 | 106034 17 | 23:33.60 | 0:44.72 | 106035 | 109406 18 | 24:18.57 | 1:04.34 | 109407 | 114240 19 | 25:23.16 | 0:57.66 | 114241 | 118581 20 | 26:21.07 | 0:38.47 | 118582 | 121478 21 | 26:59.54 | 1:04.00 | 121479 | 126278 22 | 28:03.54 | 3:11.65 | 126279 | 140668 23 | 31:15.44 | 0:46.43 | 140669 | 144161 24 | 32:02.12 | 2:30.40 | 144162 | 155451 25 | 34:32.52 | 1:52.47 | 155452 | 163898 26 | 36:25.24 | 1:06.74 | 163899 | 168922 27 | 37:32.23 | 0:53.07 | 168923 | 172904 28 | 38:25.30 | 3:13.40 | 172905 | 187419 29 | 41:38.70 | 0:51.02 | 187420 | 191246 30 | 42:29.72 | 2:11.71 | 191247 | 201142 31 | 44:41.68 | 1:43.49 | 201143 | 208916 32 | 46:25.42 | 3:12.43 | 208917 | 223359 33 | 49:38.10 | 2:22.39 | 223360 | 234048 34 | 52:00.49 | 2:50.37 | 234049 | 246835 35 | 54:51.11 | 1:06.10 | 246836 | 251795 36 | 55:57.21 | 1:01.61 | 251796 | 256431
Range status and errors
Selected range
Filename C:\temp\Baroque Music from Finland\Baroque Music from Finland.wav
Peak level 98.8 % Extraction speed 2.2 X Range quality 100.0 % Test CRC E1605AFA Copy CRC E1605AFA Copy OK
No errors occurred
AccurateRip summary
Track 1 not present in databaseTrack 2 not present in databaseTrack 3 not present in databaseTrack 4 not present in databaseTrack 5 not present in databaseTrack 6 not present in databaseTrack 7 not present in databaseTrack 8 not present in databaseTrack 9 not present in databaseTrack 10 not present in databaseTrack 11 not present in databaseTrack 12 not present in databaseTrack 13 not present in databaseTrack 14 not present in databaseTrack 15 not present in databaseTrack 16 not present in databaseTrack 17 not present in databaseTrack 18 not present in databaseTrack 19 not present in databaseTrack 20 not present in databaseTrack 21 not present in databaseTrack 22 not present in databaseTrack 23 not present in databaseTrack 24 not present in databaseTrack 25 not present in databaseTrack 26 not present in databaseTrack 27 not present in databaseTrack 28 not present in databaseTrack 29 not present in databaseTrack 30 not present in databaseTrack 31 not present in databaseTrack 32 not present in databaseTrack 33 not present in databaseTrack 34 not present in databaseTrack 35 not present in databaseTrack 36 not present in database
None of the tracks are present in the AccurateRip database
End of status report
==== Log checksum FB36CF0A32FF4FBDA7326BC2907714A726D073C6FA98F42A18C7C81BD2A80A7F ====



Показать сообщения:    

Текущее время: 08-Дек 09:03

Часовой пояс: UTC + 3


Вы не можете начинать темы
Вы не можете отвечать на сообщения
Вы не можете редактировать свои сообщения
Вы не можете удалять свои сообщения
Вы не можете голосовать в опросах
Вы не можете прикреплять файлы к сообщениям
Вы не можете скачивать файлы