Андрей Вознесенский. Вечер в концертной студии Останкино [1976 г., Творческий вечер, SATRip] Концертная студия "Останкино"


 

[Цитировать]

Андрей Вознесенский. Вечер в концертной студии Останкино Концертная студия "Останкино".
Год выпуска: 1976.
Жанр: Творческий вечер.
Продолжительность: 01:25:30.
В вечере участвуют: Микаэл Таривердиев, Родион Щедрин и София Ротару.
Описание:
Творческий вечер поэта Андрея Андреевича Вознесенского.
Поэт отвечает на вопросы зрителей, рассказывает о встрече с художником Марком Шагалом, о своей поэме "Мастера", о живописи, о стихотворении "Прощание с Политехническим", читает свои стихи - "Заповедь", "Разговор с эпиграфом", "Не возвращайтесь к былым возлюбленным" и другие.

Дополнительная информация:
Страна: СССР .
Выпущено: Главная редакция литературно-драматических программ.
Релиз
Рип lesik689.

Качество видео:...SATRip
Формат:.................AVI
Видео:..688x512 (1.34:1), 25 fps, XviD MPEG-4 ~1800 kbps avg, 0.20 bit/pixel
Аудио:..48 kHz, MPEG Layer 3, 2 ch, ~128.00 kbps avg

Отчет Media Info

General
Complete name : Andrey.Voznesenskiy.Vecher.v.Koncertnoy.studii.Ostankino.1976.XviD.SATRip.fenixclub.avi
Format : AVI
Format/Info : Audio Video Interleave
File size : 1.16 GiB
Duration : 1h 25mn
Overall bit rate : 1 938 Kbps
Video
ID : 0
Format : MPEG-4 Visual
Format profile : Advanced Simple@L5
Format settings, BVOP : 2
Format settings, QPel : No
Format settings, GMC : No warppoints
Format settings, Matrix : Default (MPEG)
Codec ID : XVID
Codec ID/Hint : XviD
Duration : 1h 25mn
Bit rate : 1 800 Kbps
Width : 688 pixels
Height : 512 pixels
Display aspect ratio : 4:3
Frame rate : 25.000 fps
Color space : YUV
Chroma subsampling : 4:2:0
Bit depth : 8 bits
Scan type : Progressive
Compression mode : Lossy
Bits/(Pixel*Frame) : 0.204
Stream size : 1.07 GiB (93%)
Writing library : XviD 73
Audio
ID : 1
Format : MPEG Audio
Format version : Version 1
Format profile : Layer 3
Mode : Joint stereo
Mode extension : MS Stereo
Codec ID : 55
Codec ID/Hint : MP3
Duration : 1h 25mn
Bit rate mode : Constant
Bit rate : 128 Kbps
Channel(s) : 2 channels
Sampling rate : 48.0 KHz
Compression mode : Lossy
Stream size : 78.3 MiB (7%)
Alignment : Split accross interleaves
Interleave, duration : 40 ms (1.00 video frame)
Interleave, preload duratio : 500 ms.

Скриншоты

Альтернативный хост




Показать сообщения:    

Текущее время: 05-Дек 21:36

Часовой пояс: UTC + 3


Вы не можете начинать темы
Вы не можете отвечать на сообщения
Вы не можете редактировать свои сообщения
Вы не можете удалять свои сообщения
Вы не можете голосовать в опросах
Вы не можете прикреплять файлы к сообщениям
Вы не можете скачивать файлы