(Chamber) Сергей Танеев - Струнный квартет №6 | Виссарион Шебалин - Струнный квартет №4 (RUSQUARTET) - 2014, FLAC (image+.cue) lossless


 

[Цитировать]

Taneyev | Shebalin
String Quartets

RUSQUARTET
-
-
- Жанр: Chamber
Страна-производитель диска: Россия
Год издания диска: 2014
Издатель (лейбл): SMC
Дата записи: 03-07.2014
Аудиокодек: FLAC
Тип рипа: image+.cue
Битрейт аудио: lossless
Продолжительность: 65'35''
Источник: собственный рип
Треклист:
[01] С.Танеев - Квартет №6: I. Allegro giusto
[02] II. Adagio serioso
[03] III. Giga. Molto vivace
[04] IV. Allegro modertao
[05] В.Шебалин - Квартет №4: I.Allegro
[06] II. Andante
[07] III. Vivo
[08] IV. Andante - Allegro
Исполнители:
RUSQUARTET-

Лог создания рипа

Exact Audio Copy V1.0 beta 4 from 7. December 2014
EAC extraction logfile from 15. September 2015, 23:07
RUSQUARTET / Taneyev, Shebalin - Quartets
Used drive : PHILIPS PCRW804 Adapter: 1 ID: 1
Read mode : SecureUtilize accurate stream : YesDefeat audio cache : YesMake use of C2 pointers : No
Read offset correction : -436Overread into Lead-In and Lead-Out : NoFill up missing offset samples with silence : YesDelete leading and trailing silent blocks : NoNull samples used in CRC calculations : YesUsed interface : Native Win32 interface for Win NT & 2000
Used output format : User Defined EncoderSelected bitrate : 1024 kBit/sQuality : HighAdd ID3 tag : NoCommand line compressor : C:\Program Files (x86)\FLAC\flac.exeAdditional command line options : -T "COMMENT=rip by el coronel" -8 -V %source%
TOC of the extracted CD
Track | Start | Length | Start sector | End sector --------------------------------------------------------- 1 | 0:00.00 | 11:47.72 | 0 | 53096 2 | 11:47.72 | 9:38.38 | 53097 | 96484 3 | 21:26.35 | 6:03.51 | 96485 | 123760 4 | 27:30.11 | 9:06.32 | 123761 | 164742 5 | 36:36.43 | 7:59.69 | 164743 | 200736 6 | 44:36.37 | 7:12.52 | 200737 | 233188 7 | 51:49.14 | 4:12.55 | 233189 | 252143 8 | 56:01.69 | 9:33.03 | 252144 | 295121
Range status and errors
Selected range
Filename F:\Music\Taneyev, Shebalin - Quartets (Rusqaurtet)\CD.wav
Peak level 100.0 % Extraction speed 2.1 X Range quality 100.0 % Test CRC 6029C78B Copy CRC 6029C78B Copy OK
No errors occurred
AccurateRip summary
Track 1 not present in databaseTrack 2 not present in databaseTrack 3 not present in databaseTrack 4 not present in databaseTrack 5 not present in databaseTrack 6 not present in databaseTrack 7 not present in databaseTrack 8 not present in database
None of the tracks are present in the AccurateRip database
End of status report
---- CUETools DB Plugin V2.1.4
[CTDB TOCID: ja7cl39Ug4tAk8qeoRRUGKhrjSw-] disk not present in databaseSubmit result: ja7cl39Ug4tAk8qeoRRUGKhrjSw- has been uploaded
==== Log checksum EF416BD384EA207B32A39AE68150EFA78A644263E81ACA122C94329C8B4FB10E ====

Содержание индексной карты (.CUE)

REM GENRE ClassicalREM DATE 2014REM DISCID 730F5E08REM COMMENT "ExactAudioCopy v1.0b4"PERFORMER "RUSQUARTET"TITLE "Taneyev, Shebalin - Quartets"FILE "CD.flac" WAVE TRACK 01 AUDIO TITLE "S.Taneyev - String Quartet No.6: I. Allegro giusto" PERFORMER "RUSQUARTET" INDEX 01 00:00:00 TRACK 02 AUDIO TITLE "II. Adagio serioso" PERFORMER "RUSQUARTET" INDEX 01 11:47:72 TRACK 03 AUDIO TITLE "III. Giga. Molto vivace" PERFORMER "RUSQUARTET" INDEX 01 21:26:35 TRACK 04 AUDIO TITLE "IV. Allegro modertao" PERFORMER "RUSQUARTET" INDEX 01 27:30:11 TRACK 05 AUDIO TITLE "V.Shebalin - String Quartet No.4: I.Allegro" PERFORMER "RUSQUARTET" INDEX 01 36:36:43 TRACK 06 AUDIO TITLE "II. Andante" PERFORMER "RUSQUARTET" INDEX 01 44:36:37 TRACK 07 AUDIO TITLE "III. Vivo" PERFORMER "RUSQUARTET" INDEX 01 51:49:14 TRACK 08 AUDIO TITLE "IV. Andante - Allegro" PERFORMER "RUSQUARTET" INDEX 01 56:01:69



Показать сообщения:    

Текущее время: 02-Дек 21:12

Часовой пояс: UTC + 3


Вы не можете начинать темы
Вы не можете отвечать на сообщения
Вы не можете редактировать свои сообщения
Вы не можете удалять свои сообщения
Вы не можете голосовать в опросах
Вы не можете прикреплять файлы к сообщениям
Вы не можете скачивать файлы