Милый экзорцист / В юной жизни / Сладостный экзорцизм / Na Vida Jovem / Sweet Exorcist / Sweet Exorcism (Педро Кошта / Pedro Costa) [2012, Португалия, драма, короткий метр, DVDRip-AVC] + Sub Rus + Original Por


Статистика раздачи [Обновить пиров]
Размер:  147 MB   |    Зарегистрирован:  11 месяцев 23 дня   |    Скачан:  0 раз

Полного источника не было: Никогда

Личеров:  3  [  0 KB/s  ]   Подробная статистика пиров
 
   
 
 
 

[Цитировать]

Милый экзорцист / В юной жизни / Сладостный экзорцизм / Na Vida Jovem / Sweet Exorcist / Sweet Exorcism
Страна: Португалия
Жанр: драма, короткий метр
Год выпуска: 2012
Продолжительность: 00:29:45
Перевод: Субтитры
Cубтитры: русские
Оригинальная аудиодорожка: португальский
Режиссер: Педро Кошта / Pedro Costa
В ролях: Вентура/Ventura
Описание: Вентура, герой последних фильмов Педру Кошта, изломанный, но стойкий, вечный, как вечен рабский труд, возвращается от доктора. Садится в лифт и оказывается под стражей часового. Пока Вентура едет вниз, он вспоминает всё: танцы, работу на стройке, жену, «революцию гвоздик». Вентура теряется во временах, чтобы обрести время. Его атакуют злобные голоса – а он поёт. Он не сдаётся.
Фрагмент из альманаха «Исторический центр» (Centro Histórico).
Доп. информация: Перевод – daft-digger, тайминг – alex-kin, окончательная подготовка субтитров – Kacablanka.
Файл взят с Карагарги, за что благодарим duder.
Сэмпл: http://multi-up.com/1002888
Качество видео: DVDRip-AVC
Формат видео: MKV
Видео: DIVX at 485 kbps, 0.047 bit/pixel, 720x576 at 25 fps
Аудио: AC-3 at 192 kbps 2 ch (Front: L R), 48,0 kHz
Формат субтитров: softsub (SSA/ASS)

MediaInfo

Формат : Matroska
Размер файла : 147 Мбайт
Продолжительность : 29 м.
Общий поток : 691 Кбит/сек
Дата кодирования : UTC 2014-07-11 15:48:14
Программа кодирования : mkvmerge v6.2.0 ('Promised Land') built on Apr 28 2013 18:50:30
Библиотека кодирования : libebml v1.3.0 + libmatroska v1.4.0
Видео
Идентификатор : 1
Формат : MPEG-4 Visual
Профиль формата : Simple@L1
Параметр BVOP формата : Нет
Параметр QPel формата : Нет
Параметр GMC формата : Без точки перехода
Параметр матрицы формата : Default (H.263)
Идентификатор кодека : DIVX
Идентификатор кодека/Информация : Project Mayo
Идентификатор кодека/Подсказка : DivX 4
Продолжительность : 29 м.
Битрейт : 485 Кбит/сек
Ширина : 720 пикс.
Высота : 576 пикс.
Соотношение сторон : 5:4
Частота кадров : 25,000 кадр/сек
Стандарт вещания : PAL
Цветовое пространство : YUV
Подвыборка цветности : 4:2:0
Битовая глубина : 8 бит
Тип развёртки : Прогрессивная
Метод сжатия : С потерями
Бит/(Пиксели*Кадры) : 0.047
Размер потока : 103 Мбайт (70%)
Библиотека кодирования : Lavc51.7.0
Аудио
Идентификатор : 2
Формат : AC-3
Формат/Информация : Audio Coding 3
Расширение режима : CM (complete main)
Идентификатор кодека : A_AC3
Продолжительность : 29 м.
Вид битрейта : Постоянный
Битрейт : 192 Кбит/сек
Канал(ы) : 2 канала(ов)
Расположение каналов : Front: L R
Частота : 48,0 КГц
Битовая глубина : 16 бит
Метод сжатия : С потерями
Размер потока : 40,9 Мбайт (28%)

Фрагмент субтитров

78
00:10:28,200 --> 00:10:29,670 SSA: Dialogue, Layer: 0, Style: New, Name: , MarginL: 0000, MarginR: 0000, MarginV: 0000, Effect:
Свержение режима.
79
00:10:31,080 --> 00:10:33,270 SSA: Dialogue, Layer: 0, Style: New, Name: , MarginL: 0000, MarginR: 0000, MarginV: 0000, Effect:
Могу я постучать в твою дверь
в конце этого дня
80
00:10:33,360 --> 00:10:35,030 SSA: Dialogue, Layer: 0, Style: New, Name: , MarginL: 0000, MarginR: 0000, MarginV: 0000, Effect:
и сказать слово...
81
00:10:37,000 --> 00:10:38,670 SSA: Dialogue, Layer: 0, Style: New, Name: , MarginL: 0000, MarginR: 0000, MarginV: 0000, Effect:
Однажды ночью...
82
00:10:41,160 --> 00:10:43,030 SSA: Dialogue, Layer: 0, Style: New, Name: , MarginL: 0000, MarginR: 0000, MarginV: 0000, Effect:
Большая черная птица...
83
00:10:45,550 --> 00:10:47,390 SSA: Dialogue, Layer: 0, Style: New, Name: , MarginL: 0000, MarginR: 0000, MarginV: 0000, Effect:
Пролетела над моей хижиной.
84
00:10:54,240 --> 00:10:56,350 SSA: Dialogue, Layer: 0, Style: New, Name: , MarginL: 0000, MarginR: 0000, MarginV: 0000, Effect:
И прошлой ночью снова...
85
00:10:59,600 --> 00:11:01,510 SSA: Dialogue, Layer: 0, Style: New, Name: , MarginL: 0000, MarginR: 0000, MarginV: 0000, Effect:
С большим черным крылом.
86
00:11:07,840 --> 00:11:10,670 SSA: Dialogue, Layer: 0, Style: New, Name: , MarginL: 0000, MarginR: 0000, MarginV: 0000, Effect:
Матерь чудовища!
Матерь чудовища!
87
00:11:11,960 --> 00:11:12,990 SSA: Dialogue, Layer: 0, Style: New, Name: , MarginL: 0000, MarginR: 0000, MarginV: 0000, Effect:
Закрой свой рот,
Вентура!
88
00:11:13,160 --> 00:11:15,670 SSA: Dialogue, Layer: 0, Style: New, Name: , MarginL: 0000, MarginR: 0000, MarginV: 0000, Effect:
Наш апрельский конвой
никогда не ходил по вашим трущобам!
89
00:11:22,200 --> 00:11:23,990 SSA: Dialogue, Layer: 0, Style: New, Name: , MarginL: 0000, MarginR: 0000, MarginV: 0000, Effect:
Вентура, здесь часовой.
90
00:11:26,400 --> 00:11:29,230 SSA: Dialogue, Layer: 0, Style: New, Name: , MarginL: 0000, MarginR: 0000, MarginV: 0000, Effect:
Откройте эту дверь
во имя генерала Спинолы...
91
00:11:29,320 --> 00:11:30,390 SSA: Dialogue, Layer: 0, Style: New, Name: , MarginL: 0000, MarginR: 0000, MarginV: 0000, Effect:
Одноглазого.
92
00:11:32,000 --> 00:11:33,870 SSA: Dialogue, Layer: 0, Style: New, Name: , MarginL: 0000, MarginR: 0000, MarginV: 0000, Effect:
Это неблагодарно, Вентура!
93
00:11:35,280 --> 00:11:39,710 SSA: Dialogue, Layer: 0, Style: New, Name: , MarginL: 0000, MarginR: 0000, MarginV: 0000, Effect:
Разве ты не помнишь?
Черный против черного с ножом?
94
00:11:40,240 --> 00:11:44,190 SSA: Dialogue, Layer: 0, Style: New, Name: , MarginL: 0000, MarginR: 0000, MarginV: 0000, Effect:
Одним воскресным днем...
Ты танцевал в парке Эстрела.
95
00:11:52,360 --> 00:11:54,590 SSA: Dialogue, Layer: 0, Style: New, Name: , MarginL: 0000, MarginR: 0000, MarginV: 0000, Effect:
Вы смыли кровь
с моего лица?
96
00:11:54,720 --> 00:11:57,430 SSA: Dialogue, Layer: 0, Style: New, Name: , MarginL: 0000, MarginR: 0000, MarginV: 0000, Effect:
Кто заботился о тебе,
пока ты лежал полумертвым?
97
00:11:58,840 --> 00:12:00,750 SSA: Dialogue, Layer: 0, Style: New, Name: , MarginL: 0000, MarginR: 0000, MarginV: 0000, Effect:
Вы спрятали
нож убийцы?
98
00:12:00,920 --> 00:12:03,950 SSA: Dialogue, Layer: 0, Style: New, Name: , MarginL: 0000, MarginR: 0000, MarginV: 0000, Effect:
Кто поднял тебя
и отнес в военный госпиталь?

Скриншот c названием фильма

Скриншоты

[teatrix.ru].t12166.torrent 
Торрент: Зарегистрирован [ 2015-12-11 19:45 ] · 5C327AE30B0D813A09D0321821C8085A5189FC64

Скачать .torrent

Скачать

12 KB

Статус: проверено
Скачан: 0 раз
Размер: 147 MB
terms.php



Быстрый ответ

Имя:

      
Для отправки сообщений необходимо включить JavaScript
Показать сообщения:    

Текущее время: 04-Дек 13:17

Часовой пояс: UTC + 3


Вы можете начинать темы
Вы можете отвечать на сообщения
Вы не можете редактировать свои сообщения
Вы не можете удалять свои сообщения
Вы не можете голосовать в опросах
Вы не можете прикреплять файлы к сообщениям
Вы можете скачивать файлы