Короли эпизода (Валентина Сперантова) (7 выпуск) (Филипп Сурков) [2015, Документальный, биография, кинематограф, познавательный, SATRip]


Статистика раздачи [Обновить пиров]
Размер:  516 MB   |    Зарегистрирован:  11 месяцев 22 дня   |    Скачан:  0 раз

Полного источника не было: Никогда

 
   
 
 
 

[Цитировать]

Короли эпизода (Валентина Сперантова) (7 выпуск)
Дата/Год выпуска: 2015
Страна: Россия, ООО «Студия 8»
Жанр: Документальный, биография, кинематограф, познавательный
Продолжительность: 00:39:15
Перевод: Не требуется
Русские субтитры: нет
Режиссер: Филипп Сурков
Описание: Каждый фильм цикла – это импровизированный худсовет, на котором отсматриваются эпизоды фильмов с участием любимых артистов. А потом собравшиеся гости, среди которых – Карен Шахназаров, Станислав Говорухин, Светлана Дружинина и другие известные в мире кино люди – будут вспоминать героев каждой серии, рассказывать об их судьбе и выбирать один эпизод, который по их мнению является абсолютным шедевром.
Одной из самых ярких актрис уходящего амплуа травести посвящается…«Век травести до обидного короток. А переход на иные, так называемые «возрастные» роли – что ж, хорошо, если он состоится. А если нет? Да и, честно говоря, так ли уж много случаев каждый из нас припомнит, когда блистательная травести становилась столь же блистательной старухой?... Так вот, Валентине Александровне Сперантовой колоссально повезло: благодаря радио, она смогла работать в амплуа травести, данном ей свыше, целые сорок лет», – вспоминал замечательный актер и режиссер радиопостановок Николай Литвинов, имевший счастье работать с актрисой все эти годы («Какое наслаждение было работать с нею!»). Радио позволило сыграть Валентине Сперантовой те роли, которые она уже по объективным причинам не могла играть в театре. А ведь почти до конца жизни голос ее оставался молодым. Актриса большого внутреннего дыхания, беспокойная внутри, озорница до седых волос, всегда настроенная на волну детства. Она никогда не говорила о своих тяготах и бедах. «Что бы и кого она не играла – ребенка ли, старуху ли, драматическую или комедийную роль – душевные запасы на все были наготове. Казалось, дотронешься до ее души, и сразу что-то откликнется живой, правдивой неожиданностью».
качество: SATRip
формат: AVI
Видео: 704x448 (1.57:1), 25 fps, XviD build 50 ~1700 kbps avg, 0.21 bit/pixel
Аудио: 48 kHz, MPEG Layer 3, 2 ch, ~128.00 kbps avg

MediaInfo

Complete name : D:\gotov\Manual Service_fixed.aviFormat : AVIFormat/Info : Audio Video InterleaveFile size : 516 MiBDuration : 39mn 15sOverall bit rate : 1 838 KbpsWriting application : VirtualDubMod 1.5.10.3 | www.virtualdub-fr.org || (build 2550/release)Writing library : VirtualDubMod build 2550/release
VideoID : 0Format : MPEG-4 VisualFormat profile : Advanced Simple@L5Format settings, BVOP : 2Format settings, QPel : NoFormat settings, GMC : No warppointsFormat settings, Matrix : Default (MPEG)Codec ID : XVIDCodec ID/Hint : XviDDuration : 39mn 15sBit rate : 1 700 KbpsWidth : 704 pixelsHeight : 448 pixelsDisplay aspect ratio : 16:10Frame rate : 25.000 fpsColor space : YUVChroma subsampling : 4:2:0Bit depth : 8 bitsScan type : ProgressiveCompression mode : LossyBits/(Pixel*Frame) : 0.216Stream size : 477 MiB (93%)Writing library : XviD 1.2.1 (UTC 2008-12-04)
AudioID : 1Format : MPEG AudioFormat version : Version 1Format profile : Layer 3Codec ID : 55Codec ID/Hint : MP3Duration : 39mn 15sBit rate mode : ConstantBit rate : 128 KbpsChannel count : 2 channelsSampling rate : 48.0 KHzCompression mode : LossyStream size : 35.9 MiB (7%)Alignment : Aligned on interleavesInterleave, duration : 40 ms (1.00 video frame)Interleave, preload duration : 504 msWriting library : LAME3.99rEncoding settings : -m s -V 4 -q 2 -lowpass 17 -b 128

Скриншоты

[teatrix.ru].t12170.torrent 
Торрент: Зарегистрирован [ 2015-12-11 19:45 ] · B46FDFFE3472A0E4B94305FEAD035951A78BB981

Скачать .torrent

Скачать

11 KB

Статус: проверено
Скачан: 0 раз
Размер: 516 MB
terms.php



Показать сообщения:    

Текущее время: 03-Дек 07:40

Часовой пояс: UTC + 3


Вы не можете начинать темы
Вы не можете отвечать на сообщения
Вы не можете редактировать свои сообщения
Вы не можете удалять свои сообщения
Вы не можете голосовать в опросах
Вы не можете прикреплять файлы к сообщениям
Вы можете скачивать файлы