(Classical) Boris Pigovat (Борис Пиговат) - Holocaust Requiem; Poem of Dawn - Анна Серова, Croatian Radio & Television Symphony Orchestra, Nicola Guerini - 2015, FLAC (image+.cue) lossless


 

[Цитировать]

Boris Pigovat (Борис Пиговат) - Holocaust Requiem; Poem of Dawn - Анна Серова, Croatian Radio & Television Symphony Orchestra, Nicola Guerini
Жанр: Classical
Год издания диска: 2015
Издатель (лейбл): Naxos
Номер по каталогу: 8.572729
Дата записи: 2013, 2014
Аудиокодек: FLAC
Тип рипа: image+.cue
Битрейт аудио: lossless
Продолжительность: 66:30
Источник: собственный рип
Наличие сканов в содержимом раздачи: да
Треклист:
Boris Pigovat (b.1953)
[1]-[4] Holocaust Requiem (1994-95)
[5] Poem of Dawn (2010)*
*WORLD PREMIÈRE RECORDING
Исполнители:
Anna Serova viola
Croatian Radio & Television Symphony Orchestra
Nicola Guerini

Лог создания рипа

Exact Audio Copy V1.1 from 23. June 2015
EAC extraction logfile from 3. December 2015, 1:35
Anna Serova, Croatian Radio & Television Symphony Orchestra, Nicola Guerini / Boris Pigovat - Holocaust Requiem; Poem of Dawn
Used drive : HL-DT-STDVDRAM GU70N Adapter: 1 ID: 0
Read mode : SecureUtilize accurate stream : YesDefeat audio cache : YesMake use of C2 pointers : No
Read offset correction : 48Overread into Lead-In and Lead-Out : NoFill up missing offset samples with silence : YesDelete leading and trailing silent blocks : NoNull samples used in CRC calculations : YesUsed interface : Native Win32 interface for Win NT & 2000
Used output format : User Defined EncoderSelected bitrate : 128 kBit/sQuality : HighAdd ID3 tag : NoCommand line compressor : C:\Program Files (x86)\Exact Audio Copy\Flac\flac.exeAdditional command line options : -V -8 -T "Date=%year%" -T "Genre=%genre%" %source%
TOC of the extracted CD
Track | Start | Length | Start sector | End sector --------------------------------------------------------- 1 | 0:00.00 | 13:53.48 | 0 | 62522 2 | 13:53.48 | 13:46.60 | 62523 | 124532 3 | 27:40.33 | 8:59.60 | 124533 | 165017 4 | 36:40.18 | 12:30.60 | 165018 | 221327 5 | 49:11.03 | 17:16.72 | 221328 | 299099
Range status and errors
Selected range
Filename C:\temp\Naxos_8.572729 - Pigovat - Holocaust Requiem; Poem of Dawn\Pigovat - Holocaust Requiem; Poem of Dawn.wav
Peak level 96.7 % Extraction speed 2.1 X Range quality 99.9 % Test CRC 15E0ECB3 Copy CRC 15E0ECB3 Copy OK
No errors occurred
AccurateRip summary
Track 1 not present in databaseTrack 2 not present in databaseTrack 3 not present in databaseTrack 4 not present in databaseTrack 5 not present in database
None of the tracks are present in the AccurateRip database
End of status report
==== Log checksum 0F9D23E20ABE7A6B54B747EF384067D7D946DCAD15A0C603790B6FCDA189688F ====



Показать сообщения:    

Текущее время: 05-Дек 13:32

Часовой пояс: UTC + 3


Вы не можете начинать темы
Вы не можете отвечать на сообщения
Вы не можете редактировать свои сообщения
Вы не можете удалять свои сообщения
Вы не можете голосовать в опросах
Вы не можете прикреплять файлы к сообщениям
Вы не можете скачивать файлы