Белое пространство / The White Space / Lo Spazio Bianco (Франческа Коменчини / Francesca Comencini) [2009, Италия, Драма, DVDRip] (nestejatel) + Sub Rus + Original Ita


Статистика раздачи [Обновить пиров]
Размер:  1.46 GB   |    Зарегистрирован:  11 месяцев   |    Скачан:  0 раз

Полного источника не было: Никогда

Личеров:  2  [  0 KB/s  ]   Подробная статистика пиров
 
   
 
 
 

[Цитировать]

Белое пространство / The White Space / Lo Spazio Bianco
Страна: Италия
Жанр: Драма
Год выпуска: 2009
Продолжительность: 01:36:04
Перевод: Субтитры nestejatel
Cубтитры: русские, английские, итальянские
Оригинальная аудиодорожка: итальянский
Режиссер: Франческа Коменчини / Francesca Comencini
В ролях: Маргерита Буй / Margherita Buy, Гаэтано Бруно / Gaetano Bruno, Джованни Лудено / Giovanni Ludeno
Описание: Фильм повествует о сильной и независимой женщине. Она впервые в жизни оказалась в ситуации, которую не в силах контролировать. Мария учительница итальянского языка, живет одна, без родителей и мужчины. Случайное знакомство в кинотеатре оборачивается для нее беременностью. Отец ничего не хочет слышать о ребенке, но Мария принимает решение оставить его. Малыш рождается недоношенным. Больница, холодное стекло инкубатора и долгое ожидание… Женщина погружается в эмоциональное пространство, чтобы пережить свое бессилие. Все, что она может, только ждать… ждать… ждать…
Сэмпл: http://sendfile.su/1182947
Качество видео: DVDRip
Формат видео: MKV
Видео: 1 950 Kbps, 720*436(2.35:1), at 25.000 fps, AVC (High@L3.1)(CABAC/10 Ref Frames)
Аудио: 224 Kbps, 48.0 KHz, 16 bits, 6 channels, AC-3

MediaInfo

General
Unique ID : 213334508543283850408784035966478541938 (0xA07EBB5863ACA6AE83BC65F2C2B56472)
Complete name : C:\Users\Никита\Desktop\Francesca Comencini - (2009) The White Space.mkv
Format : Matroska
Format version : Version 4 / Version 2
File size : 1.46 GiB
Duration : 1h 36mn
Overall bit rate : 2 178 Kbps
Encoded date : UTC 2015-12-13 07:17:23
Writing application : mkvmerge v7.8.0 ('River Man') 32bit built on Mar 27 2015 16:18:02
Writing library : libebml v1.3.1 + libmatroska v1.4.2
DURATION : 01:30:59.200000000
NUMBER_OF_FRAMES : 826
NUMBER_OF_BYTES : 48920
_STATISTICS_WRITING_APP : mkvmerge v7.8.0 ('River Man') 32bit built on Mar 27 2015 16:18:02
_STATISTICS_WRITING_DATE_UTC : 2015-12-13 07:17:23
_STATISTICS_TAGS : BPS DURATION NUMBER_OF_FRAMES NUMBER_OF_BYTES
Video
ID : 1
Format : AVC
Format/Info : Advanced Video Codec
Format profile : High@L3.1
Format settings, CABAC : Yes
Format settings, ReFrames : 10 frames
Codec ID : V_MPEG4/ISO/AVC
Duration : 1h 36mn
Bit rate : 1 950 Kbps
Width : 720 pixels
Height : 436 pixels
Display aspect ratio : 2.35:1
Frame rate mode : Constant
Frame rate : 25.000 fps
Color space : YUV
Chroma subsampling : 4:2:0
Bit depth : 8 bits
Scan type : Progressive
Bits/(Pixel*Frame) : 0.248
Stream size : 1.28 GiB (88%)
Writing library : x264 core 142 r2479 dd79a61
Encoding settings : cabac=1 / ref=10 / deblock=1:-1:-1 / analyse=0x3:0x133 / me=umh / subme=10 / psy=1 / psy_rd=1.00:0.15 / mixed_ref=1 / me_range=28 / chroma_me=1 / trellis=2 / 8x8dct=1 / cqm=0 / deadzone=21,11 / fast_pskip=0 / chroma_qp_offset=-3 / threads=3 / lookahead_threads=1 / sliced_threads=0 / nr=0 / decimate=0 / interlaced=0 / bluray_compat=0 / constrained_intra=0 / bframes=9 / b_pyramid=2 / b_adapt=2 / b_bias=0 / direct=3 / weightb=1 / open_gop=0 / weightp=2 / keyint=250 / keyint_min=25 / scenecut=40 / intra_refresh=0 / rc_lookahead=60 / rc=2pass / mbtree=0 / bitrate=1950 / ratetol=3.0 / qcomp=0.60 / qpmin=0 / qpmax=69 / qpstep=4 / cplxblur=20.0 / qblur=0.5 / vbv_maxrate=14000 / vbv_bufsize=14000 / nal_hrd=none / filler=0 / ip_ratio=1.40 / pb_ratio=1.30 / aq=1:1.00
Language : English
Default : Yes
Forced : No
DURATION : 01:36:04.000000000
NUMBER_OF_FRAMES : 144100
NUMBER_OF_BYTES : 1403247615
_STATISTICS_WRITING_APP : mkvmerge v7.8.0 ('River Man') 32bit built on Mar 27 2015 16:18:02
_STATISTICS_WRITING_DATE_UTC : 2015-12-13 07:17:23
_STATISTICS_TAGS : BPS DURATION NUMBER_OF_FRAMES NUMBER_OF_BYTES
Audio
ID : 2
Format : AC-3
Format/Info : Audio Coding 3
Mode extension : CM (complete main)
Format settings, Endianness : Big
Codec ID : A_AC3
Duration : 1h 36mn
Bit rate mode : Constant
Bit rate : 224 Kbps
Channel(s) : 6 channels
Channel positions : Front: L C R, Side: L R, LFE
Sampling rate : 48.0 KHz
Bit depth : 16 bits
Compression mode : Lossy
Stream size : 154 MiB (10%)
Default : Yes
Forced : No
Text #1
ID : 3
Format : VobSub
Muxing mode : zlib
Codec ID : S_VOBSUB
Codec ID/Info : The same subtitle format used on DVDs
Language : Italian
Default : Yes
Forced : No
Text #2
ID : 4
Format : VobSub
Muxing mode : zlib
Codec ID : S_VOBSUB
Codec ID/Info : The same subtitle format used on DVDs
Language : English
Default : No
Forced : No
Text #3
ID : 5
Format : UTF-8
Codec ID : S_TEXT/UTF8
Codec ID/Info : UTF-8 Plain Text
Language : Russian
Default : No
Forced : No

Скриншот c названием фильма

Скриншоты

Фрагмент субтитров

333
00:41:20,520 --> 00:41:23,478
- У меня декретный отпуск.
- Сохрани его, когда выпишут Ирену.
334
00:41:23,680 --> 00:41:27,514
А если ее не выпишут, ты вернешь мне это время?
335
00:41:27,760 --> 00:41:31,071
- Ее выпишут.
- Да, прости, я не подумала.
336
00:41:31,960 --> 00:41:35,874
Я не буду чувствовать себя лучше на работе,
это только отвлекает.
337
00:41:36,120 --> 00:41:38,680
А я не могу себе этого позволить.
338
00:41:40,120 --> 00:41:41,793
Конечно...
339
00:41:42,040 --> 00:41:45,999
если бы моя мама с папой были здесь,
340
00:41:46,240 --> 00:41:48,709
кто-нибудь, кто бы мог обо мне позаботиться.
341
00:42:33,680 --> 00:42:36,194
Луиза, я на месте.
Мне куда?
342
00:42:37,520 --> 00:42:39,670
Направо? Куда?
343
00:42:42,160 --> 00:42:44,720
Хорошо, я иду.
344
00:42:52,960 --> 00:42:53,791
Привет.
345
00:42:54,680 --> 00:42:57,513
Хорошо выглядишь!
346
00:42:58,680 --> 00:43:00,637
- Проходи.
- Мило.
347
00:43:00,880 --> 00:43:03,315
- Нравится?
- Очень.
[teatrix.ru].t12185.torrent 
Торрент: Зарегистрирован [ 2015-12-13 23:10 ] · F30F7DF4A59BB87DE6FA024E022EE0D8F3D247C9

Скачать .torrent

Скачать

15 KB

Статус: проверено
Скачан: 0 раз
Размер: 1.46 GB
terms.php



Быстрый ответ

Имя:

      
Для отправки сообщений необходимо включить JavaScript
Показать сообщения:    

Текущее время: 11-Дек 11:05

Часовой пояс: UTC + 3


Вы можете начинать темы
Вы можете отвечать на сообщения
Вы не можете редактировать свои сообщения
Вы не можете удалять свои сообщения
Вы не можете голосовать в опросах
Вы не можете прикреплять файлы к сообщениям
Вы можете скачивать файлы