(Classical) Johann Krieger - Love Songs & Arias • Philipp Friedrich Buchner - Sonatas from "Plectrum Musicum" - Jan Kobow, United Continuo Ensemble - 2009, FLAC (image+.cue) lossless


 

[Цитировать]

Johann Krieger - Love Songs & Arias • Philipp Friedrich Buchner - Sonatas from "Plectrum Musicum" - Jan Kobow, United Continuo Ensemble
Жанр: Classical
Страна-производитель диска: Germany
Год издания диска: 2009
Издатель (лейбл): CPO
Номер по каталогу: cpo 777 433-2
Дата записи: 2006
Аудиокодек: FLAC
Тип рипа: image+.cue
Битрейт аудио: lossless
Продолжительность: 71:01
Источник: собственный рип
Наличие сканов в содержимом раздачи: да
Треклист:
Johann Krieger (1651-1735)
[1] Auff die Kirch-Weihe
[2] Oster-Andacht
[3] Vor der Trauung
Philipp Friedrich Buchner (1614-1669)
[4] Sonata for 2 Violins & Bassoon
Johann Krieger
[5] Laßt uns freuen
[6] Ihr Freunde, fragt ihr noch
[7] Kömmt wir wollen ausspazieren
[8] Lasst mich in der Einsamkeit
Philipp Friedrich Buchner
[9] Sonata for 2 Violins
Johann Krieger
[10] Es ist mir von Natur gegeben
[11] Ihr angenehmen Leute
[12] Ich habe mein Liebgen im Garten gesehen
[13] Ich traue nicht
[14] Die Losung ist Geld
Philipp Friedrich Buchner
[15] Sonata for Violin & Bassoon
Johann Krieger
[16] Neu Jahrs-Andacht
[17] Auff ein Ernte-Fest
[18] Abend-Andacht
[19] Abend Musick Sei willkommen
Исполнители:
Jan Kobow tenor
United Continuo Ensemble

Лог создания рипа

Exact Audio Copy V1.1 from 23. June 2015
EAC extraction logfile from 25. August 2015, 22:15
Jan Kobow, United Continuo Ensemble / Krieger - Love Songs & Arias
Used drive : HL-DT-STDVDRAM GU70N Adapter: 1 ID: 0
Read mode : SecureUtilize accurate stream : YesDefeat audio cache : YesMake use of C2 pointers : No
Read offset correction : 48Overread into Lead-In and Lead-Out : NoFill up missing offset samples with silence : YesDelete leading and trailing silent blocks : NoNull samples used in CRC calculations : YesUsed interface : Native Win32 interface for Win NT & 2000
Used output format : User Defined EncoderSelected bitrate : 128 kBit/sQuality : HighAdd ID3 tag : NoCommand line compressor : C:\Program Files (x86)\Exact Audio Copy\Flac\flac.exeAdditional command line options : -V -8 -T "Date=%year%" -T "Genre=%genre%" %source%
TOC of the extracted CD
Track | Start | Length | Start sector | End sector --------------------------------------------------------- 1 | 0:00.00 | 6:14.19 | 0 | 28068 2 | 6:14.19 | 5:04.41 | 28069 | 50909 3 | 11:18.60 | 4:02.07 | 50910 | 69066 4 | 15:20.67 | 5:22.47 | 69067 | 93263 5 | 20:43.39 | 1:49.60 | 93264 | 101498 6 | 22:33.24 | 1:33.54 | 101499 | 108527 7 | 24:07.03 | 1:46.23 | 108528 | 116500 8 | 25:53.26 | 2:42.33 | 116501 | 128683 9 | 28:35.59 | 4:05.22 | 128684 | 147080 10 | 32:41.06 | 3:07.69 | 147081 | 161174 11 | 35:49.00 | 1:54.50 | 161175 | 169774 12 | 37:43.50 | 6:11.18 | 169775 | 197617 13 | 43:54.68 | 2:28.37 | 197618 | 208754 14 | 46:23.30 | 1:57.01 | 208755 | 217530 15 | 48:20.31 | 4:00.14 | 217531 | 235544 16 | 52:20.45 | 6:40.55 | 235545 | 265599 17 | 59:01.25 | 4:05.31 | 265600 | 284005 18 | 63:06.56 | 2:45.58 | 284006 | 296438 19 | 65:52.39 | 5:07.22 | 296439 | 319485
Range status and errors
Selected range
Filename C:\temp\Krieger - Love Songs & Arias\Krieger - Love Songs & Arias.wav
Peak level 77.6 % Extraction speed 2.3 X Range quality 100.0 % Test CRC 7F6DC6F4 Copy CRC 7F6DC6F4 Copy OK
No errors occurred
AccurateRip summary
Track 1 accurately ripped (confidence 9) [FED10D9E] (AR v2)Track 2 accurately ripped (confidence 9) [B95F04D5] (AR v2)Track 3 accurately ripped (confidence 9) [7F913DFA] (AR v2)Track 4 accurately ripped (confidence 9) [A524ABD8] (AR v2)Track 5 accurately ripped (confidence 9) [68B04FCF] (AR v2)Track 6 accurately ripped (confidence 9) [FE831896] (AR v2)Track 7 accurately ripped (confidence 9) [C5A19D27] (AR v2)Track 8 accurately ripped (confidence 9) [192913A4] (AR v2)Track 9 accurately ripped (confidence 9) [8E50209B] (AR v2)Track 10 accurately ripped (confidence 9) [46724151] (AR v2)Track 11 accurately ripped (confidence 9) [A654A243] (AR v2)Track 12 accurately ripped (confidence 9) [39151262] (AR v2)Track 13 accurately ripped (confidence 9) [995B8E00] (AR v2)Track 14 accurately ripped (confidence 9) [D8D43458] (AR v2)Track 15 accurately ripped (confidence 9) [B5E67921] (AR v2)Track 16 accurately ripped (confidence 9) [198D2A3D] (AR v2)Track 17 accurately ripped (confidence 9) [84237701] (AR v2)Track 18 accurately ripped (confidence 9) [C5E1F3F0] (AR v2)Track 19 accurately ripped (confidence 9) [61DF3E89] (AR v2)
All tracks accurately ripped
End of status report
==== Log checksum 226F9CB80DA151B2884843151C0A1D2A8759C406209A41E610D57FEFAD27662A ====



Показать сообщения:    

Текущее время: 05-Дек 05:23

Часовой пояс: UTC + 3


Вы не можете начинать темы
Вы не можете отвечать на сообщения
Вы не можете редактировать свои сообщения
Вы не можете удалять свои сообщения
Вы не можете голосовать в опросах
Вы не можете прикреплять файлы к сообщениям
Вы не можете скачивать файлы