(Classical) Erkki Melartin - Aino - Korhonen, Tiilikainen, Paasikivi, Freund, Alamikkotervo; Lahti Symphony Orchestra, Ulf Söderblom (Soderblom) - 2002, FLAC (image+.cue) lossless


 

[Цитировать]

Erkki Melartin - Aino - Korhonen, Tiilikainen, Paasikivi, Freund, Alamikkotervo; Lahti Symphony Orchestra, Ulf Söderblom
Жанр: Classical
Страна-производитель диска: Sweden
Год издания диска: 2002
Издатель (лейбл): BIS
Номер по каталогу: BIS-CD-1193/94
Дата записи: 2000
Аудиокодек: FLAC
Тип рипа: image+.cue
Битрейт аудио: lossless
Продолжительность: 105:01
Источник: собственный рип
Наличие сканов в содержимом раздачи: да
Треклист:
Erkki Melartin (1875-1937)
Aino (1907-09)
Opera in Two Acts
CD1
[1]-[8] Act I
CD2
[1]-[9] Act II
Исполнители:
Aino: Ritva-Liisa Korhonen soprano
Väinö: Sauli Tiilikainen baritone
Taina, Aino’s mother: Lilli Paasikivi mezzo-soprano
Ainikki, Aino’s sister: Pia Freund soprano
Jouko, Aino’s brother: Aki Alamikkotervo tenor
Dominante Choir
Lahti Symphony Orchestra (Sinfonia Lahti)
Ulf Söderblom

Лог создания рипа: CD1

Exact Audio Copy V1.0 beta 3 from 29. August 2011
EAC extraction logfile from 11. April 2015, 23:51
Lahti Symphony Orchestra, Ulf Soderblom / Melartin - Aino - Act I
Used drive : HL-DT-STDVDRAM GU70N Adapter: 0 ID: 0
Read mode : SecureUtilize accurate stream : YesDefeat audio cache : YesMake use of C2 pointers : No
Read offset correction : 48Overread into Lead-In and Lead-Out : NoFill up missing offset samples with silence : YesDelete leading and trailing silent blocks : NoNull samples used in CRC calculations : YesUsed interface : Native Win32 interface for Win NT & 2000
Used output format : User Defined EncoderSelected bitrate : 128 kBit/sQuality : HighAdd ID3 tag : NoCommand line compressor : C:\Program Files (x86)\Exact Audio Copy\Flac\flac.exeAdditional command line options : -V -8 -T "Date=%year%" -T "Genre=%genre%" %source%
TOC of the extracted CD
Track | Start | Length | Start sector | End sector --------------------------------------------------------- 1 | 0:00.00 | 5:19.35 | 0 | 23959 2 | 5:19.35 | 7:29.65 | 23960 | 57699 3 | 12:49.25 | 7:17.32 | 57700 | 90506 4 | 20:06.57 | 4:13.00 | 90507 | 109481 5 | 24:19.57 | 2:13.35 | 109482 | 119491 6 | 26:33.17 | 7:11.50 | 119492 | 151866 7 | 33:44.67 | 1:43.63 | 151867 | 159654 8 | 35:28.55 | 9:58.62 | 159655 | 204566
Range status and errors
Selected range
Filename C:\temp\BIS-CD-1193-94 - Melartin - Aino\CD1\Melartin - Aino - Act I.wav
Peak level 99.9 % Extraction speed 4.8 X Range quality 100.0 % Test CRC 254F5398 Copy CRC 254F5398 Copy OK
No errors occurred
AccurateRip summary
Track 1 accurately ripped (confidence 1) [B42F16E0] (AR v2)Track 2 accurately ripped (confidence 1) [DC9F6EEF] (AR v2)Track 3 accurately ripped (confidence 1) [37F1F7C9] (AR v2)Track 4 accurately ripped (confidence 1) [8732ABC7] (AR v2)Track 5 accurately ripped (confidence 1) [3F1D749F] (AR v2)Track 6 accurately ripped (confidence 1) [D7F1A470] (AR v2)Track 7 accurately ripped (confidence 1) [E4F67840] (AR v2)Track 8 accurately ripped (confidence 1) [D647ED8C] (AR v2)
All tracks accurately ripped
End of status report
==== Log checksum 577B2D14EEDF216F3EE3804E2ACAA693C8B412716254D19F72AD3C87D08DE43A ====

Лог создания рипа: CD2

Exact Audio Copy V1.0 beta 3 from 29. August 2011
EAC extraction logfile from 12. April 2015, 0:47
Lahti Symphony Orchestra, Ulf Soderblom / Melartin - Aino - Act II
Used drive : HL-DT-STDVDRAM GU70N Adapter: 0 ID: 0
Read mode : SecureUtilize accurate stream : YesDefeat audio cache : YesMake use of C2 pointers : No
Read offset correction : 48Overread into Lead-In and Lead-Out : NoFill up missing offset samples with silence : YesDelete leading and trailing silent blocks : NoNull samples used in CRC calculations : YesUsed interface : Native Win32 interface for Win NT & 2000
Used output format : User Defined EncoderSelected bitrate : 128 kBit/sQuality : HighAdd ID3 tag : NoCommand line compressor : C:\Program Files (x86)\Exact Audio Copy\Flac\flac.exeAdditional command line options : -V -8 -T "Date=%year%" -T "Genre=%genre%" %source%
TOC of the extracted CD
Track | Start | Length | Start sector | End sector --------------------------------------------------------- 1 | 0:00.00 | 6:05.50 | 0 | 27424 2 | 6:05.50 | 4:33.00 | 27425 | 47899 3 | 10:38.50 | 3:36.40 | 47900 | 64139 4 | 14:15.15 | 3:52.10 | 64140 | 81549 5 | 18:07.25 | 2:32.22 | 81550 | 92971 6 | 20:39.47 | 16:20.20 | 92972 | 166491 7 | 36:59.67 | 1:09.68 | 166492 | 171734 8 | 38:09.60 | 8:55.17 | 171735 | 211876 9 | 47:05.02 | 13:30.70 | 211877 | 272696
Range status and errors
Selected range
Filename C:\temp\BIS-CD-1193-94 - Melartin - Aino\CD2\Melartin - Aino - Act II.wav
Peak level 99.9 % Extraction speed 2.0 X Range quality 100.0 % Test CRC 1B8454E2 Copy CRC 1B8454E2 Copy OK
No errors occurred
AccurateRip summary
Track 1 accurately ripped (confidence 1) [ED07091A] (AR v2)Track 2 accurately ripped (confidence 1) [DB64E197] (AR v2)Track 3 accurately ripped (confidence 1) [4EFB6990] (AR v2)Track 4 accurately ripped (confidence 1) [03972404] (AR v2)Track 5 accurately ripped (confidence 1) [BFFE5A0C] (AR v2)Track 6 accurately ripped (confidence 1) [7AE9866A] (AR v2)Track 7 accurately ripped (confidence 1) [17DDF20A] (AR v2)Track 8 accurately ripped (confidence 1) [EF1D64F0] (AR v2)Track 9 accurately ripped (confidence 1) [E59B9BCA] (AR v2)
All tracks accurately ripped
End of status report
==== Log checksum 0809C9BD60642DF05DFE0A3A48722764F00CC53AEC50C14692A1D15E6D22B377 ====



Показать сообщения:    

Текущее время: 07-Дек 19:27

Часовой пояс: UTC + 3


Вы не можете начинать темы
Вы не можете отвечать на сообщения
Вы не можете редактировать свои сообщения
Вы не можете удалять свои сообщения
Вы не можете голосовать в опросах
Вы не можете прикреплять файлы к сообщениям
Вы не можете скачивать файлы