Я - Брюс Ли / I Am Bruce Lee (Пит МакКормак / Pete McCormack) [2012, Документальный, HDTVRip-AVC] MVO (Первый Канал)


Статистика раздачи [Обновить пиров]
Размер:  1.15 GB   |    Зарегистрирован:  11 месяцев 26 дней   |    Скачан:  0 раз
Сидов:  45  [  0 KB/s  ]   Личеров:  3  [  0 KB/s  ]   Подробная статистика пиров
 
   
 
 

[Цитировать]

Я - Брюс Ли / I Am Bruce Lee- Дата/Год выпуска: 2012
Страна: Канада | LeeWay Media | Network Entertainment
Жанр: Документальный
Продолжительность: 1:27:34
Перевод: Профессиональный (многоголосый закадровый) | "Первый Канал"
Режиссер: Пит МакКормак / Pete McCormack-Описание: Фильм "Брюс Ли" рассказывает удивительную историю жизни одного из самых культовых актеров 20-го столетия, чей образ и жизненная философия стали достоянием как мира боевых искусств, так и мира кинематографа. Он ушел совсем молодым, но остался в памяти друзей, родных, деятелей культуры и спортсменов, которые рассказывают о нем в этом фильме. Его боевая техника на экране до сих пор остается непревзойденной, а мысли и идеи по поводу философии боевых единоборств оказали решающее влияние на становление бесчисленного множества бойцов по всему миру.- -Примечание: Видеоряд локализован на русский язык-Автор рипа: lrn
Автор записи: Alexin29
Сэмпл: sendfile-Тип релиза: HDTVRip-AVC
Контейнер: MKV
Видео: 1024x576 (16:9), 25,000 fps, H264, ~1500 kbps avg, ~0.102 bit/pixel
Аудио: 48 kHz, AC3 Dolby Digital, 3/2 (L,C,R,l,r) + LFE ch, ~384.00 kbps avg-

MediaInfo

GeneralUnique ID : 217761383163807994965021116171122824811 (0xA3D3511D843943D2AEEB812A1AFED66B)Complete name : E:\uTorrent.Temp\Temp\I.Am.Bruce.Lee.2012.HDTVRip-AVC.x264-RUS-lrn.mkvFormat : MatroskaFormat version : Version 4 / Version 2File size : 1.15 GiBDuration : 1h 27mnOverall bit rate : 1 886 KbpsMovie name : I.Am.Bruce.Lee.2012.HDTVRip-AVC.x264-RUS-lrnEncoded date : UTC 2010-02-22 21:41:31Writing application : mkvmerge v5.9.0 ('On The Loose') built on Dec 9 2012 15:37:01Writing library : libebml v1.3.0 + libmatroska v1.4.0
VideoID : 1Format : AVCFormat/Info : Advanced Video CodecFormat profile : High@L4.1Format settings, CABAC : YesFormat settings, ReFrames : 8 framesCodec ID : V_MPEG4/ISO/AVCDuration : 1h 27mnBit rate : 1 500 KbpsWidth : 1 024 pixelsHeight : 576 pixelsDisplay aspect ratio : 16:9Frame rate mode : ConstantFrame rate : 25.000 fpsColor space : YUVChroma subsampling : 4:2:0Bit depth : 8 bitsScan type : ProgressiveBits/(Pixel*Frame) : 0.102Stream size : 917 MiB (78%)Writing library : x264 core 148 r2638 7599210Encoding settings : cabac=1 / ref=8 / deblock=1:-3:-3 / analyse=0x3:0x133 / me=umh / subme=9 / psy=1 / psy_rd=1.00:0.00 / mixed_ref=1 / me_range=32 / chroma_me=1 / trellis=2 / 8x8dct=1 / cqm=0 / deadzone=21,11 / fast_pskip=1 / chroma_qp_offset=-2 / threads=12 / lookahead_threads=2 / sliced_threads=0 / nr=0 / decimate=1 / interlaced=0 / bluray_compat=0 / constrained_intra=0 / bframes=8 / b_pyramid=2 / b_adapt=2 / b_bias=0 / direct=3 / weightb=1 / open_gop=0 / weightp=2 / keyint=250 / keyint_min=25 / scenecut=40 / intra_refresh=0 / rc_lookahead=50 / rc=2pass / mbtree=1 / bitrate=1500 / ratetol=1.0 / qcomp=0.60 / qpmin=0 / qpmax=69 / qpstep=4 / cplxblur=20.0 / qblur=0.5 / vbv_maxrate=62500 / vbv_bufsize=78125 / nal_hrd=none / filler=0 / ip_ratio=1.40 / aq=1:1.00Default : YesForced : NoStatistics Tags Issue : mkvmerge v8.5.2 ('Crosses') 32bit 2015-12-13 08:37:49 / mkvmerge v5.9.0 ('On The Loose') built on Dec 9 2012 15:37:01 2010-02-22 21:41:31FromStats_BitRate : 1500183FromStats_Duration : 01:27:34.280000000FromStats_FrameCount : 131357FromStats_StreamSize : 985298045
AudioID : 2Format : AC-3Format/Info : Audio Coding 3Mode extension : CM (complete main)Format settings, Endianness : BigCodec ID : A_AC3Duration : 1h 27mnBit rate mode : ConstantBit rate : 384 KbpsChannel(s) : 6 channelsChannel positions : Front: L C R, Side: L R, LFESampling rate : 48.0 KHzFrame rate : 31.250 fps (1536 spf)Compression mode : LossyStream size : 241 MiB (20%)Language : RussianDefault : YesForced : No

x264 log

raw [info]: 1024x576p 1:1 @ 25/1 fps (cfr)x264 [info]: using SAR=1/1x264 [info]: using cpu capabilities: MMX2 SSE2Fast SSSE3 SSE4.2 AVXx264 [info]: profile High, level 4.1x264 [info]: frame I:1597 Avg QP:15.29 size: 45050x264 [info]: frame P:33755 Avg QP:19.14 size: 13288x264 [info]: frame B:96005 Avg QP:20.83 size: 4842x264 [info]: consecutive B-frames: 4.0% 4.6% 5.8% 56.3% 6.2% 11.2% 2.1% 6.7% 3.0%x264 [info]: mb I I16..4: 14.8% 75.0% 10.2%x264 [info]: mb P I16..4: 2.1% 10.6% 0.8% P16..4: 40.3% 12.3% 9.7% 0.2% 0.1% skip:23.9%x264 [info]: mb B I16..4: 0.1% 1.2% 0.1% B16..8: 33.1% 6.8% 1.2% direct: 4.7% skip:52.8% L0:44.8% L1:47.7% BI: 7.5%x264 [info]: 8x8 transform intra:78.7% inter:77.8%x264 [info]: direct mvs spatial:97.0% temporal:3.0%x264 [info]: coded y,uvDC,uvAC intra: 72.0% 52.5% 22.3% inter: 18.0% 11.5% 0.3%x264 [info]: i16 v,h,dc,p: 46% 14% 8% 32%x264 [info]: i8 v,h,dc,ddl,ddr,vr,hd,vl,hu: 12% 9% 9% 8% 12% 14% 12% 12% 12%x264 [info]: i4 v,h,dc,ddl,ddr,vr,hd,vl,hu: 13% 9% 4% 9% 15% 15% 13% 11% 11%x264 [info]: i8c dc,h,v,p: 52% 19% 15% 14%x264 [info]: Weighted P-Frames: Y:4.8% UV:1.0%x264 [info]: ref P L0: 49.9% 10.7% 16.3% 6.8% 5.3% 4.4% 3.7% 2.5% 0.4% 0.0%x264 [info]: ref B L0: 73.5% 12.3% 6.3% 3.2% 2.5% 1.5% 0.7%x264 [info]: ref B L1: 93.5% 6.5%x264 [info]: kb/s:1500.18encoded 131357 frames, 26.48 fps, 1500.18 kb/s

Скриншоты

-
[teatrix.ru].t12197.torrent 
Торрент: Зарегистрирован [ 2015-12-13 23:10 ] · 78321031BAD3C29811ABD3992422D8B82C24C33C

Скачать .torrent

Скачать

12 KB

Статус: проверено
Скачан: 0 раз
Размер: 1.15 GB
terms.php



Быстрый ответ

Имя:

      
Для отправки сообщений необходимо включить JavaScript
Показать сообщения:    

Текущее время: 09-Дек 18:34

Часовой пояс: UTC + 3


Вы можете начинать темы
Вы можете отвечать на сообщения
Вы не можете редактировать свои сообщения
Вы не можете удалять свои сообщения
Вы не можете голосовать в опросах
Вы не можете прикреплять файлы к сообщениям
Вы можете скачивать файлы