Людмила Сенчина. Где ты, счастье моё? (Ираида Максимова) [2015, Документальный, биография, вокал, SATRip]


Статистика раздачи [Обновить пиров]
Размер:  688 MB   |    Зарегистрирован:  11 месяцев 23 дня   |    Скачан:  0 раз

Полного источника не было: Никогда

Личеров:  2  [  0 KB/s  ]   Подробная статистика пиров
 
   
 
 
 

[Цитировать]

Людмила Сенчина. Где ты, счастье моё?
Дата/Год выпуска: 2015
Страна: Россия, ООО "Музфильм"
Жанр: Документальный, биография, вокал
Продолжительность: 00:52:17
Перевод: Не требуется
Русские субтитры: нет
Режиссер: Ираида Максимова
Описание: После блестящего дебюта и популярности в советские времена и практически полного забвения в 90-х, Людмила Сенчина вернулась на экраны, в сердца зрителей, в активную творческую жизнь. За эти годы певица не разменяла свой талант на обиды и разочарования, она не боится экспериментов и справляется с любой ролью...
качество: SATRip
формат: AVI
Видео: 704x448 (1.57:1), 25 fps, XviD build 50 ~1700 kbps avg, 0.22 bit/pixel
Аудио: 48 kHz, MPEG Layer 3, 2 ch, ~128.00 kbps avg

MediaInfo

Complete name : D:\gotov\Людмила Сенчина.Где ты счастье моё.2015.SATRip.aviFormat : AVIFormat/Info : Audio Video InterleaveFile size : 688 MiBDuration : 52mn 17sOverall bit rate : 1 839 KbpsWriting application : VirtualDubMod 1.5.10.3 | www.virtualdub-fr.org || (build 2550/release)Writing library : VirtualDubMod build 2550/release
VideoID : 0Format : MPEG-4 VisualFormat profile : Advanced Simple@L5Format settings, BVOP : 2Format settings, QPel : NoFormat settings, GMC : No warppointsFormat settings, Matrix : Default (MPEG)Codec ID : XVIDCodec ID/Hint : XviDDuration : 52mn 17sBit rate : 1 701 KbpsWidth : 704 pixelsHeight : 448 pixelsDisplay aspect ratio : 16:10Frame rate : 25.000 fpsColor space : YUVChroma subsampling : 4:2:0Bit depth : 8 bitsScan type : ProgressiveCompression mode : LossyBits/(Pixel*Frame) : 0.216Stream size : 636 MiB (93%)Writing library : XviD 1.2.1 (UTC 2008-12-04)
AudioID : 1Format : MPEG AudioFormat version : Version 1Format profile : Layer 3Codec ID : 55Codec ID/Hint : MP3Duration : 52mn 17sBit rate mode : ConstantBit rate : 128 KbpsChannel count : 2 channelsSampling rate : 48.0 KHzCompression mode : LossyStream size : 47.9 MiB (7%)Alignment : Aligned on interleavesInterleave, duration : 40 ms (1.00 video frame)Interleave, preload duration : 504 msWriting library : LAME3.99rEncoding settings : -m s -V 4 -q 2 -lowpass 17 -b 128

Скриншоты

[teatrix.ru].t12198.torrent 
Торрент: Зарегистрирован [ 2015-12-13 23:10 ] · 1D4DD80B700D0D0E0DB16A1450E6472EA51314A6

Скачать .torrent

Скачать

14 KB

Статус: проверено
Скачан: 0 раз
Размер: 688 MB
terms.php



Быстрый ответ

Имя:

      
Для отправки сообщений необходимо включить JavaScript
Показать сообщения:    

Текущее время: 06-Дек 22:54

Часовой пояс: UTC + 3


Вы можете начинать темы
Вы можете отвечать на сообщения
Вы не можете редактировать свои сообщения
Вы не можете удалять свои сообщения
Вы не можете голосовать в опросах
Вы не можете прикреплять файлы к сообщениям
Вы можете скачивать файлы