Белорусская дипломатия. Первый министр - Кузьма Венедиктович Киселев (Сергей Агеенко) [Республика Беларусь, 2013, Документальный, DVB-AVC]


Статистика раздачи [Обновить пиров]
Размер:  460 MB   |    Зарегистрирован:  11 месяцев 23 дня   |    Скачан:  0 раз
Сидов:  1  [  0 KB/s  ]   Личеров:  3  [  0 KB/s  ]   Подробная статистика пиров
 
   
 
 
 

[Цитировать]

Белорусская дипломатия. Первый министр
Год выпуска: 2013
Страна: Республика Беларусь
Студия: Летопись, Беларусьфильм
Жанр: Документальный
Продолжительность: 00:26:08
Перевод: Не требуется
Автор сценария: Мороз Владимир Викентьевич, Василий Киселев
Режиссер: Сергей Агеенко
Описание: Беларусь является страной-учредительницей и полноправным членом Организации Объединенных Наций с 1945 года. Это всем известно. Менее известно, как развивались события в то время, кто стоял у истоков дипломатического ведомства БССР. Первым министром иностранных дел БССР был Кузьма Венедиктович Киселев, проработавший на этом посту более двадцати лет. В фильме рассказано о жизненном пути паренька из простой белорусской крестьянской семьи, поднявшегося к высотам государственной власти. Жизнь его была неотделима от истории страны, основные события которой мы должны знать и помнить.
Фильм снят на студии “Летопись” режиссером С. Агеенко в 2013 году и приурочен к 110-летию со дня рождения известного белорусского политика и дипломата Кузьмы Венидиктовича Киселева. В числе его сценаристов значится сын К. В. Киселева Василий Кузьмич Киселев.
Доп. информация: Запись потока *.ts с наземного цифрового телеканала "Беларусь 3", ремукс в *.mkv программой VideoReDo.
качество: DVB-AVC
формат: MKV
Видео: MPEG4 Video (H264) 720x576 (49:36) 25fps, 2 153 Kbps
Аудио: MPEG Audio 48000Hz stereo 256kbps
Сэмпл: http://multi-up.com/1079188

MediaInfo

GeneralUnique ID : 43233728358543039812007592060610491813 (0x208683616C8AD5DAD2041B11265D35A5)Complete name : D:\Новая земля 2\001 Документальный фильмы\Личности\Белорусская дипломатия. Первый министр (2013)\Белорусская дипломатия. Первый министр (2013).mkvFormat : MatroskaFormat version : Version 2File size : 460 MiBDuration : 26mn 8sOverall bit rate : 2 458 KbpsWriting application : Lavf52.64.2Writing library : Lavf52.64.2
VideoID : 1Format : AVCFormat/Info : Advanced Video CodecFormat profile : Main@L3.0Format settings, CABAC : YesFormat settings, ReFrames : 4 framesCodec ID : V_MPEG4/ISO/AVCDuration : 26mn 8sBit rate : 2 153 KbpsWidth : 720 pixelsHeight : 576 pixelsDisplay aspect ratio : 4:3Original display aspect ratio : 4:3Frame rate mode : ConstantFrame rate : 25.000 fpsStandard : PALColor space : YUVChroma subsampling : 4:2:0Bit depth : 8 bitsScan type : MBAFFScan order : Top Field FirstBits/(Pixel*Frame) : 0.208Stream size : 403 MiB (88%)Default : YesForced : NoColor primaries : BT.601 PALTransfer characteristics : BT.470 System B, BT.470 System GMatrix coefficients : BT.601Color range : Limited
AudioID : 2Format : MPEG AudioFormat version : Version 1Format profile : Layer 2Codec ID : A_MPEG/L2Codec ID/Hint : MP2Duration : 26mn 8sBit rate mode : ConstantBit rate : 256 KbpsChannel(s) : 2 channelsSampling rate : 48.0 KHzCompression mode : LossyStream size : 47.9 MiB (10%)Language : EnglishDefault : YesForced : No
[teatrix.ru].t12199.torrent 
Торрент: Зарегистрирован [ 2015-12-13 23:10 ] · 9F3D3FDAF760DFDC8964CA431874AB9AC71B3873

Скачать .torrent

Скачать

18 KB

Статус: проверено
Скачан: 0 раз
Размер: 460 MB
terms.php



Быстрый ответ

Имя:

      
Для отправки сообщений необходимо включить JavaScript
Показать сообщения:    

Текущее время: 06-Дек 17:02

Часовой пояс: UTC + 3


Вы можете начинать темы
Вы можете отвечать на сообщения
Вы не можете редактировать свои сообщения
Вы не можете удалять свои сообщения
Вы не можете голосовать в опросах
Вы не можете прикреплять файлы к сообщениям
Вы можете скачивать файлы