В эстетике маленького человека. Михаил Светин (Максим Катушкин) [2005, Документальный, биография, искусство, SATRip]


Статистика раздачи [Обновить пиров]
Размер:  376 MB   |    Зарегистрирован:  11 месяцев 27 дней   |    Скачан:  0 раз

Полного источника не было: Никогда

Личеров:  2  [  0 KB/s  ]   Подробная статистика пиров
 
   
 
 
 

[Цитировать]

В эстетике маленького человека. Михаил Светин
Дата/Год выпуска: 2005
Страна: Россия, ВГТРК
Жанр: Документальный, биография, искусство
Продолжительность: 00:25:49
Перевод: Не требуется
Русские субтитры: нет
Режиссер: Максим Катушкин
Описание: Удивительный актер Михаил Семенович Светин, чей имидж – "маленький человек", своим учителем считал Чарли Чаплина. Судьба Светина складывалась непросто. Он говорил: "Моя стихия – рынки и помойки". В этом утверждении, конечно же, много актерского, но и много правды...В фильме использованы фрагменты фильмов и сцены из спектаклей с участием Михаила Светина.
качество: SATRip
формат: AVI
Видео: 688x528 (1.30:1), 25 fps, XviD build 50 ~1896 kbps avg, 0.21 bit/pixel
Аудио: 48 kHz, MPEG Layer 3, 2 ch, ~128.00 kbps avg

MediaInfo

Complete name : D:\gotov\В эстетике маленького человека.Михаил Светин.2005.SATRip.aviFormat : AVIFormat/Info : Audio Video InterleaveFile size : 376 MiBDuration : 25mn 49sOverall bit rate : 2 035 KbpsWriting application : VirtualDubMod 1.5.10.3 | www.virtualdub-fr.org || (build 2550/release)Writing library : VirtualDubMod build 2550/release
VideoID : 0Format : MPEG-4 VisualFormat profile : Advanced Simple@L5Format settings, BVOP : 2Format settings, QPel : NoFormat settings, GMC : No warppointsFormat settings, Matrix : Default (MPEG)Codec ID : XVIDCodec ID/Hint : XviDDuration : 25mn 49sBit rate : 1 897 KbpsWidth : 688 pixelsHeight : 528 pixelsDisplay aspect ratio : 4:3Frame rate : 25.000 fpsColor space : YUVChroma subsampling : 4:2:0Bit depth : 8 bitsScan type : ProgressiveCompression mode : LossyBits/(Pixel*Frame) : 0.209Stream size : 350 MiB (93%)Writing library : XviD 1.2.1 (UTC 2008-12-04)
AudioID : 1Format : MPEG AudioFormat version : Version 1Format profile : Layer 3Codec ID : 55Codec ID/Hint : MP3Duration : 25mn 49sBit rate mode : ConstantBit rate : 128 KbpsChannel count : 2 channelsSampling rate : 48.0 KHzCompression mode : LossyStream size : 23.7 MiB (6%)Alignment : Aligned on interleavesInterleave, duration : 40 ms (1.00 video frame)Interleave, preload duration : 504 msWriting library : LAME3.99rEncoding settings : -m s -V 4 -q 2 -lowpass 17 -b 128

Скриншоты

[teatrix.ru].t12200.torrent 
Торрент: Зарегистрирован [ 2015-12-13 23:10 ] · F77F6C69BE51D2259615E77DC9C9899F5B347DE3

Скачать .torrent

Скачать

8 KB

Статус: проверено
Скачан: 0 раз
Размер: 376 MB
terms.php



Быстрый ответ

Имя:

      
Для отправки сообщений необходимо включить JavaScript
Показать сообщения:    

Текущее время: 10-Дек 08:03

Часовой пояс: UTC + 3


Вы можете начинать темы
Вы можете отвечать на сообщения
Вы не можете редактировать свои сообщения
Вы не можете удалять свои сообщения
Вы не можете голосовать в опросах
Вы не можете прикреплять файлы к сообщениям
Вы можете скачивать файлы