Собачья жара / Hundstage / Dog Days (Ульрих Зайдль / Ulrich Seidl) [2001, Австрия, драма, DVDRip] DVO


Статистика раздачи [Обновить пиров]
Размер:  747 MB   |    Зарегистрирован:  11 месяцев   |    Скачан:  0 раз

Полного источника не было: Никогда

Личеров:  3  [  0 KB/s  ]   Подробная статистика пиров
 
   
 
 
 

[Цитировать]

Собачья жара / Hundstage / Dog Days
Год выпуска: 2001
Страна: Австрия
Жанр: драма
Продолжительность: 02:01:56
Перевод: Профессиональный (двухголосый, закадровый)
Оригинальная аудиодорожка: нет
Русские субтитры: нет
Режиссер: Ульрих Зайдль / Ulrich Seidl
В ролях: Мария Хофштаттер /Maria Hofstätter/, Альфред Мрва /Alfred Mrva/, Эрик Финшес /Erich Finsches/, Герти Лехнер /Gerti Lehner/, Виктор Хеннеманн /Viktor Hennemann/, Георг Фридрих /Georg Friedrich/
Описание: Собачья жара опустилась на пригород Вены, зажатый между автострадами, огромными гипермаркетами и новыми частными виллами. Дни текут лениво. Плавится асфальт, плавятся тела, и люди снимают с себя все, кроме трусов и бикини. Ночью они пытаются забыться в алкоголе и сексе, но это приводит лишь к вспышкам ярости и насилия. Негде укрыться от удушающей жары. Напряжение растет вместе с повышением температуры. Расплавленные мозги окончательно выходят из-под контроля своих обладателей, превратившихся в обезумевших дикарей.
Качество: DVDRip
Формат: AVI
Видео кодек: XviD
Аудио кодек: МР3
Видео: 656x368 (1.78:1), 25 fps, XviD build 73 ~718 kbps avg, 0.12 bit/pixel
Аудио: 48 kHz, MPEG Layer 3, 2 ch, ~128.00 kbps avg
Медиаинфо">

Скриншоты Медиаинфо


F:\sobachya_zhara_745_[torrents.ru].avi
General
Complete name : F:\sobachya_zhara_745_[torrents.ru].avi
Format : AVI
Format/Info : Audio Video Interleave
File size : 747 MiB
Duration : 2h 1mn
Overall bit rate : 856 Kbps
Writing application : VirtualDubMod 1.5.10.3 | www.virtualdub-fr.org || (build 2550/release)
Writing library : VirtualDubMod build 2550/release
Video
Format : MPEG-4 Visual
Format profile : Streaming Video@L1
Format settings, BVOP : Yes
Format settings, QPel : No
Format settings, GMC : No warppoints
Format settings, Matrix : Custom
Codec ID : XVID
Codec ID/Hint : XviD
Duration : 2h 1mn
Bit rate : 719 Kbps
Width : 656 pixels
Height : 368 pixels
Display aspect ratio : 16/9
Frame rate : 25.000 fps
Resolution : 24 bits
Colorimetry : 4:2:0
Scan type : Progressive
Bits/(Pixel*Frame) : 0.119
Stream size : 627 MiB (84%)
Writing library : XviD 73
Audio
Format : MPEG Audio
Format version : Version 1
Format profile : Layer 3
Codec ID : 55
Codec ID/Hint : MP3
Duration : 2h 1mn
Bit rate mode : Constant
Bit rate : 128 Kbps
Minimum bit rate : 128 Kbps
Channel(s) : 2 channels
Sampling rate : 48.0 KHz
Resolution : 16 bits
Stream size : 112 MiB (15%)
Alignment : Aligned on interleaves
Interleave, duration : 40 ms (1.00 video frame)
Interleave, preload duration : 504 ms
Writing library : LAME3.99r
Encoding settings : CBR
[teatrix.ru].t12203.torrent 
Торрент: Зарегистрирован [ 2015-12-14 03:20 ] · 3C158F51B990898CA86DBCBAED8F2ADF3C2D6A55

Скачать .torrent

Скачать

15 KB

Статус: проверено
Скачан: 0 раз
Размер: 747 MB
terms.php



Быстрый ответ

Имя:

      
Для отправки сообщений необходимо включить JavaScript
Показать сообщения:    

Текущее время: 11-Дек 07:09

Часовой пояс: UTC + 3


Вы можете начинать темы
Вы можете отвечать на сообщения
Вы не можете редактировать свои сообщения
Вы не можете удалять свои сообщения
Вы не можете голосовать в опросах
Вы не можете прикреплять файлы к сообщениям
Вы можете скачивать файлы