Собачья жара / Hundstage / Dog Days (Ульрих Зайдль / Ulrich Seidl) [2001, Австрия, драма, DVDRip] DVO


Статистика раздачи [Обновить пиров]
Размер:  1.46 GB   |    Зарегистрирован:  11 месяцев 22 дня   |    Скачан:  0 раз

Полного источника не было: Никогда

Личеров:  2  [  0 KB/s  ]   Подробная статистика пиров
 
   
 
 
 

[Цитировать]

Собачья жара / Hundstage / Dog Days
Год выпуска: 2001
Страна: Австрия
Жанр: драма
Продолжительность: 02:01:56
Перевод: Профессиональный (двухголосый, закадровый)
Оригинальная аудиодорожка: нет
Русские субтитры: нет
Режиссер: Ульрих Зайдль / Ulrich Seidl
В ролях: Мария Хофштаттер /Maria Hofstätter/, Альфред Мрва /Alfred Mrva/, Эрик Финшес /Erich Finsches/, Герти Лехнер /Gerti Lehner/, Виктор Хеннеманн /Viktor Hennemann/, Георг Фридрих /Georg Friedrich/
Описание: Собачья жара опустилась на пригород Вены, зажатый между автострадами, огромными гипермаркетами и новыми частными виллами. Дни текут лениво. Плавится асфальт, плавятся тела, и люди снимают с себя все, кроме трусов и бикини. Ночью они пытаются забыться в алкоголе и сексе, но это приводит лишь к вспышкам ярости и насилия. Негде укрыться от удушающей жары. Напряжение растет вместе с повышением температуры. Расплавленные мозги окончательно выходят из-под контроля своих обладателей, превратившихся в обезумевших дикарей.
Качество: DVDRip
Формат: AVI
Видео кодек: XviD
Аудио кодек: АС3
Видео: 704x400 (1.76:1), 25 fps, XviD build 73 ~1509 kbps avg, 0.21 bit/pixel
Аудио: 48 kHz, AC3 Dolby Digital, 2/0 (L,R) ch, ~192.00 kbps avg
Медиаинфо">

Скриншоты Медиаинфо


F:\sobachya_zhara_1.46_[torrents.ru].avi
General
Complete name : F:\sobachya_zhara_1.46_[torrents.ru].avi
Format : AVI
Format/Info : Audio Video Interleave
File size : 1.46 GiB
Duration : 2h 1mn
Overall bit rate : 1 711 Kbps
Writing application : VirtualDubMod 1.5.10.3 | www.virtualdub-fr.org || (build 2550/release)
Writing library : VirtualDubMod build 2550/release
Video
Format : MPEG-4 Visual
Format profile : Streaming Video@L1
Format settings, BVOP : Yes
Format settings, QPel : No
Format settings, GMC : No warppoints
Format settings, Matrix : Custom
Codec ID : XVID
Codec ID/Hint : XviD
Duration : 2h 1mn
Bit rate : 1 510 Kbps
Width : 704 pixels
Height : 400 pixels
Display aspect ratio : 16/9
Frame rate : 25.000 fps
Resolution : 24 bits
Colorimetry : 4:2:0
Scan type : Progressive
Bits/(Pixel*Frame) : 0.214
Stream size : 1.29 GiB (88%)
Writing library : XviD 73
Audio
Format : AC-3
Format/Info : Audio Coding 3
Codec ID : 2000
Duration : 2h 1mn
Bit rate mode : Constant
Bit rate : 192 Kbps
Channel(s) : 2 channels
Channel positions : L R
Sampling rate : 48.0 KHz
Stream size : 167 MiB (11%)
Alignment : Split accross interleaves
Interleave, duration : 40 ms (1.00 video frame)
Interleave, preload duration : 500 ms
[teatrix.ru].t12204.torrent 
Торрент: Зарегистрирован [ 2015-12-14 03:20 ] · F6EB3B10AA52391E9A2055DCAE625667356238DC

Скачать .torrent

Скачать

15 KB

Статус: проверено
Скачан: 0 раз
Размер: 1.46 GB
terms.php



Быстрый ответ

Имя:

      
Для отправки сообщений необходимо включить JavaScript
Показать сообщения:    

Текущее время: 05-Дек 23:32

Часовой пояс: UTC + 3


Вы можете начинать темы
Вы можете отвечать на сообщения
Вы не можете редактировать свои сообщения
Вы не можете удалять свои сообщения
Вы не можете голосовать в опросах
Вы не можете прикреплять файлы к сообщениям
Вы можете скачивать файлы