Урок / Urok / The Lesson (Кристина Грожева / Kristina Grozeva / Петар Валчанов / Petar Valchanov) [2014, Греция, Болгария, драма, DVDRip] DVO (DeadSno & den904)


Статистика раздачи [Обновить пиров]
Размер:  725 MB   |    Зарегистрирован:  11 месяцев 7 дней   |    Скачан:  2 раза

Полного источника не было: 4 дня

 
   
 
 
 

[Цитировать]

Урок / Urok / The Lesson
Страна: Греция, Болгария
Жанр: драма
Год выпуска: 2014
Продолжительность: 01:50:56-Перевод: Любительский (двухголосный закадровый) DeadSno & den904
Cубтитры: нет
Оригинальная аудиодорожка: нет-Режиссер: Кристина Грожева / Kristina Grozeva / Петар Вылчанов / Petar Valchanov-В ролях: Маргита Гошева, Иван Барнев, Иван Савов, Стефан Денолюбов, Иванка Братоева, Поли Ангелова, Кирил Бакалов, Михаил Боевски, Атанас Братоев...-Описание: Учительница, живущая в провинциальном болгарском городке, оказывается в безвыходном положении и вынуждена прибегнуть к отчаянным мерам, чтобы выйти из финансового тупика, а затем — преодолеть моральные последствия своих действий.-Сэмпл: http://sendfile.su/1182891


Качество видео: DVDRip
Формат видео: AVI
Видео: 720x400 (1.80:1), 23.976 fps, XviD build 50 ~712 kbps avg, 0.10 bit/pixel
Аудио: 48 kHz, AC3 Dolby Digital, 2/0 (L,R) ch, ~192 kbps

MediaInfo

Формат : AVI
Формат/Информация : Audio Video Interleave
Размер файла : 725 Мбайт
Продолжительность : 1 ч. 50 м.
Общий поток : 914 Кбит/сек
Программа кодирования : VirtualDubMod 1.5.10.2 (build 2540/release)
Библиотека кодирования : VirtualDubMod build 2540/release
Видео
Идентификатор : 0
Формат : MPEG-4 Visual
Профиль формата : Advanced Simple@L5
Параметр BVOP формата : 1
Параметр QPel формата : Нет
Параметр GMC формата : Без точки перехода
Параметр матрицы формата : Default (MPEG)
Идентификатор кодека : XVID
Идентификатор кодека/Подсказка : XviD
Продолжительность : 1 ч. 50 м.
Битрейт : 712 Кбит/сек
Ширина : 720 пикселей
Высота : 400 пикселей
Соотношение сторон : 16:9
Частота кадров : 23,976 (23976/1000) кадра/сек
Цветовое пространство : YUV
Субдискретизация насыщенности : 4:2:0
Битовая глубина : 8 бит
Тип развёртки : Прогрессивная
Метод сжатия : С потерями
Бит/(Пиксели*Кадры) : 0.103
Размер потока : 565 Мбайт (78%)
Библиотека кодирования : XviD 1.2.1 (UTC 2008-12-04)
Аудио
Идентификатор : 1
Формат : AC-3
Формат/Информация : Audio Coding 3
Расширение режима : CM (complete main)
Параметр Endianness формата : Big
Идентификатор кодека : 2000
Продолжительность : 1 ч. 50 м.
Вид битрейта : Постоянный
Битрейт : 192 Кбит/сек
Каналы : 2 канала
Расположение каналов : Front: L R
Частота : 48,0 КГц
Частота кадров : 31,250 кадров/сек (1536 spf)
Метод сжатия : С потерями
Задержка видео : 19 мс.
Размер потока : 152 Мбайт (21%)
Выравнивание : Разделение по промежуткам
Продолжительность промежутка : 42 мс. (1,00 видеокадр)
Время предзагрузки промежутка : 500 мс.

Скриншот c названием фильма

Скриншоты





[teatrix.ru].t12205.torrent 
Торрент: Зарегистрирован [ 2015-12-28 20:38 ] · A2284D71A59972CD74F7B814071273E1C32EF245

Скачать .torrent

Скачать

15 KB

Статус: проверено
Скачан: 2 раз
Размер: 725 MB
terms.php



Быстрый ответ

Имя:

      
Для отправки сообщений необходимо включить JavaScript
Показать сообщения:    

Текущее время: 05-Дек 07:30

Часовой пояс: UTC + 3


Вы можете начинать темы
Вы можете отвечать на сообщения
Вы не можете редактировать свои сообщения
Вы не можете удалять свои сообщения
Вы не можете голосовать в опросах
Вы не можете прикреплять файлы к сообщениям
Вы можете скачивать файлы