Кантата / Развязка и завязка / Cantata / Oldas es kotes (Миклош Янчо /Miklos Jancso) [1963, Венгрия, Драма, DVD5 (Custom)] Sub Eng, Fre, Rus(nanja) + Original Mag / Mokep


Статистика раздачи [Обновить пиров]
Размер:  4.21 GB   |    Зарегистрирован:  11 месяцев 25 дней   |    Скачан:  0 раз

Полного источника не было: Никогда

Личеров:  2  [  0 KB/s  ]   Подробная статистика пиров
 
   
 
 
 

[Цитировать]

Кантата / Развязка и завязка / Cantata / Oldas es kotes
Страна:Венгрия
Студия:Budapest Filmstudio, Mafilm.
Жанр:ДрамаГод выпуска:1963
Продолжительность:01:30:06Перевод:Субтитры nanjaCубтитры:Английские, Французские, Русские
Оригинальная аудиодорожка:Венгерский
Премьера (мир):28.02.1963
Режиссер:Миклош Янчо / Miklos JancsoВ ролях:Золтан Латинович, Андор Айтаи, Бела Барши, Миклош Сакач, Дьюла Бодроги, Эдит Домьян, Мария Меддьеши, Гьёндьвер Демьен, Иштван Авар, Иштван Будаи
Описание:Основанная на повести Йозефа Ленгиела, эта драма повествует о нескольких днях из жизни доктора Ярома (Золтан Латинович). Перед нами простая и обескураживающе искренняя картина нравственного кризиса героя, у которого «все шло так гладко» в этой жизни, что к 32 годам он оказался в полном внутреннем одиночестве и растерянности, как и чем платить за подарки судьбы. Чтобы найти ответы на мучающие его вопросы, он отправляется в деревню, откуда он родом, и там, в общении со стариком-отцом, старшим братом и бывшей возлюбленной, которую он предал, пытается переосмыслить свою жизнь. Именно в этом фильме Миклош Янчо разработал свой собственный стиль, основные черты которого — чрезвычайно длинные кадры, постоянно движущаяся камера, короткие диалоги и повторяющиеся жесты.
Доп. информация:Исходник найден в сети.Реавторинг Нордер.Огромное Спасибо Всем, без чьей помощи этот релиз не состоялся бы!Сценарий:Дьюла Хернади, Миклош Янчо, Йожеф Лендьель
Оператор:Тамаш ШомлоКомпозитор:Balint SarosiХудожник:Ференц Руттка, Жужа Вице, Jozsef SzebeniМонтаж:Зольтан Фаркаш

Награды и номинации

Софт

PGCDemux (извлечение).
DVD-lab PRO 2, Subtitle Workshop (субтитры).
MuxMan (сборка). DvdReMakePro (финал).

Бонусы:(Без перевода)

Фотогалерея.Трейлеры.
Меню:Венгерский, анимированное, озвученное.Сэмпл:https://www.sendspace.com/file/b6322hТип релиза:DVD5 (Custom)
Контейнер:DVD-Video
Видео:PAL 4:3 (720x576) VBR, 6055 Кбит/сек, 25,000 кадров/секАудио:Венгерский:AC3, 2 ch, 48.0 KHz, 256 Кбит/сек / (Оригинал)Формат субтитров:prerendered (DVD/IDX+SUB)

Dvd Info

Title: W(media)
Size: 4.21 Gb ( 4 409 776 KBytes ) - DVD-5
Enabled regions: 1, 2, 3, 4, 5, 6, 7, 8
VTS_01 :
Play Length: 01:30:06
Video: PAL 4:3 (720x576) VBR
Audio:
Magyar (Dolby AC3, 2 ch)
Subtitles:
English
Francais
Russian
VTS_02 :
Play Length: 00:00:24
Video: PAL 4:3 (352x576) VBR
Audio:
Magyar (Dolby AC3, 2 ch)
VTS_03 :
Play Length: 00:00:21+00:00:43+00:00:35+00:00:37
Video: PAL 4:3 (720x576) VBR
Audio:
Magyar (Dolby AC3, 2 ch)

Mediainfo

Общее
Полное имя : F:\Cantata_Oldas es kotes DVD-5_Custom\VIDEO_TS\VTS_01_2.VOB
Формат : MPEG-PS
Размер файла : 1024 Мбайт
Продолжительность : 22 м.
Режим общего битрейта : Переменный
Общий поток : 6439 Кбит/сек
Видео
Идентификатор : 224 (0xE0)
Формат : MPEG Video
Версия формата : Version 2
Профиль формата : Main@Main
Параметр BVOP формата : Да
Параметр матрицы формата : Выборочная
Параметр GOP формата : M=3, N=12
Структура изображения : Frame
Продолжительность : 22 м.
Вид битрейта : Переменный
Битрейт : 6055 Кбит/сек
Максимальный битрейт : 9500 Кбит/сек
Ширина : 720 пикселей
Высота : 576 пикселей
Соотношение сторон : 4:3
Частота кадров : 25,000 кадров/сек
Стандарт вещания : PAL
Цветовое пространство : YUV
Субдискретизация насыщенности : 4:2:0
Битовая глубина : 8 бит
Тип развёртки : Чересстрочная
Порядок развёртки : Верхнее поле первое
Метод сжатия : С потерями
Бит/(Пиксели*Кадры) : 0.584
Временной код первого кадра : 01:22:48:17
Оригинал временного кода : Group of pictures header
GOP, открыто/закрыто : Открыто
Размер потока : 963 Мбайт (94%)
Аудио
Идентификатор : 189 (0xBD)-128 (0x80)
Формат : AC-3
Формат/Информация : Audio Coding 3
Расширение режима : CM (complete main)
Параметр Endianness формата : Big
Режим смешивания : DVD-Video
Продолжительность : 22 м.
Вид битрейта : Постоянный
Битрейт : 256 Кбит/сек
Каналы : 2 канала
Расположение каналов : Front: L R
Частота : 48,0 КГц
Метод сжатия : С потерями
Задержка видео : -512 мс.
Размер потока : 40,7 Мбайт (4%)
Текст #1
Идентификатор : 189 (0xBD)-32 (0x20)
Формат : RLE
Формат/Информация : Run-length encoding
Режим смешивания : DVD-Video
Текст #2
Идентификатор : 189 (0xBD)-33 (0x21)
Формат : RLE
Формат/Информация : Run-length encoding
Режим смешивания : DVD-Video
Текст #3
Идентификатор : 189 (0xBD)-34 (0x22)
Формат : RLE
Формат/Информация : Run-length encoding
Режим смешивания : DVD-Video

Скриншоты меню

Скриншоты

Скриншоты доп. материалов


Полиграфия


[teatrix.ru].t12206.torrent 
Торрент: Зарегистрирован [ 2015-12-14 03:20 ] · F5FE513B79F1901699359A4BCFADF3D0F4627389

Скачать .torrent

Скачать

22 KB

Статус: проверено
Скачан: 0 раз
Размер: 4.21 GB
terms.php



Быстрый ответ

Имя:

      
Для отправки сообщений необходимо включить JavaScript
Показать сообщения:    

Текущее время: 09-Дек 03:05

Часовой пояс: UTC + 3


Вы можете начинать темы
Вы можете отвечать на сообщения
Вы не можете редактировать свои сообщения
Вы не можете удалять свои сообщения
Вы не можете голосовать в опросах
Вы не можете прикреплять файлы к сообщениям
Вы можете скачивать файлы