(Classical, Pop) Valentina Babor - Piano Princess - 2015, FLAC (tracks+.cue) lossless


 

[Цитировать]

Valentina Babor / Piano Princess
Жанр: Classical, Pop
Год издания диска: 2015
Издатель (лейбл): DEAG Music GmbH
Аудиокодек: FLAC
Тип рипа: tracks+.cue
Битрейт аудио: lossless
Продолжительность: 52:26:00
Источник: скачано с
сайт-источник/ник/другое: IsraBox
Наличие сканов в содержимом раздачи: нет
Треклист:
1 Children 4:21
2 Nobody Does It Better 3:27
3 I Believe I Can Fly 4:16
4 When The Rain Begins To Fall 3:49
5 Just Give Me A Reason 3:50
6 Libertango 3:38
7 Grande Sonate Pathétique 3:25
8 Anything For Love (Featuring David Garrett) 4:48
9 Rhapsody In Blue 3:10
10 Revolutionary Etude 3:05
11 Donna Giovanna 4:01

Лог создания рипа

Exact Audio Copy V1.0 beta 3 from 29. August 2011
EAC extraction logfile from 10. July 2015, 14:15
Valentina Babor / Piano Princess
Used drive : TSSTcorpCDDVDW SE-208DB Adapter: 0 ID: 0
Read mode : SecureUtilize accurate stream : YesDefeat audio cache : YesMake use of C2 pointers : No
Read offset correction : 6Overread into Lead-In and Lead-Out : NoFill up missing offset samples with silence : YesDelete leading and trailing silent blocks : NoNull samples used in CRC calculations : YesUsed interface : Native Win32 interface for Win NT & 2000Gap handling : Appended to previous track
Used output format : User Defined EncoderSelected bitrate : 1024 kBit/sQuality : HighAdd ID3 tag : NoCommand line compressor : D:\Programme\Exact Audio Copy\Flac\flac.exeAdditional command line options : -8 -V -T "ARTIST=%artist%" -T "TITLE=%title%" -T "ALBUM=%albumtitle%" -T "DATE=%year%" -T "TRACKNUMBER=%tracknr%" -T "GENRE=%genre%" -T "PERFORMER=%albuminterpret%" -T "COMPOSER=%composer%" %haslyrics%--tag-from-file=LYRICS="%lyricsfile%"%haslyrics% -T "ALBUMARTIST=%albumartist%" -T "DISCNUMBER=%cdnumber%" -T "TOTALDISCS=%totalcds%" -T "TOTALTRACKS=%numtracks%" -T "COMMENT=%comment%" %source% -o %dest%
TOC of the extracted CD
Track | Start | Length | Start sector | End sector --------------------------------------------------------- 1 | 0:00.00 | 4:21.36 | 0 | 19610 2 | 4:21.36 | 3:27.09 | 19611 | 35144 3 | 7:48.45 | 4:16.03 | 35145 | 54347 4 | 12:04.48 | 3:48.63 | 54348 | 71510 5 | 15:53.36 | 3:50.32 | 71511 | 88792 6 | 19:43.68 | 3:37.54 | 88793 | 105121 7 | 23:21.47 | 3:24.39 | 105122 | 120460 8 | 26:46.11 | 4:48.31 | 120461 | 142091 9 | 31:34.42 | 3:09.57 | 142092 | 156323 10 | 34:44.24 | 3:04.39 | 156324 | 170162 11 | 37:48.63 | 4:01.27 | 170163 | 188264 12 | 41:50.15 | 10:41.15 | 188265 | 236354
Track 1
Filename E:\EAC\Valentina Babor - Piano Princess (2015) - FLAC\01 - Valentina Babor - Children.wav
Pre-gap length 0:00:02.00
Peak level 93.6 % Extraction speed 2.6 X Track quality 100.0 % Test CRC 275C32AD Copy CRC 275C32AD Track not present in AccurateRip database Copy OK
Track 2
Filename E:\EAC\Valentina Babor - Piano Princess (2015) - FLAC\02 - Valentina Babor - Nobody Does It Better.wav
Peak level 89.4 % Extraction speed 2.2 X Track quality 99.9 % Test CRC 8A37EA29 Copy CRC 8A37EA29 Track not present in AccurateRip database Copy OK
Track 3
Filename E:\EAC\Valentina Babor - Piano Princess (2015) - FLAC\03 - Valentina Babor - I Believe I Can Fly.wav
Peak level 89.8 % Extraction speed 3.1 X Track quality 100.0 % Test CRC B0657F69 Copy CRC B0657F69 Track not present in AccurateRip database Copy OK
Track 4
Filename E:\EAC\Valentina Babor - Piano Princess (2015) - FLAC\04 - Valentina Babor - When The Rain Begins To Fall.wav
Peak level 94.1 % Extraction speed 3.2 X Track quality 100.0 % Test CRC C5CC9743 Copy CRC C5CC9743 Track not present in AccurateRip database Copy OK
Track 5
Filename E:\EAC\Valentina Babor - Piano Princess (2015) - FLAC\05 - Valentina Babor - Just Give Me A Reason.wav
Peak level 91.5 % Extraction speed 2.8 X Track quality 99.9 % Test CRC E83866E2 Copy CRC E83866E2 Track not present in AccurateRip database Copy OK
Track 6
Filename E:\EAC\Valentina Babor - Piano Princess (2015) - FLAC\06 - Valentina Babor - Libertango.wav
Pre-gap length 0:00:01.29
Peak level 91.4 % Extraction speed 3.6 X Track quality 100.0 % Test CRC D94959D8 Copy CRC D94959D8 Track not present in AccurateRip database Copy OK
Track 7
Filename E:\EAC\Valentina Babor - Piano Princess (2015) - FLAC\07 - Valentina Babor - Grande Sonate Pathétique.wav
Peak level 90.6 % Extraction speed 2.9 X Track quality 99.9 % Test CRC 8A43B1A6 Copy CRC 8A43B1A6 Track not present in AccurateRip database Copy OK
Track 8
Filename E:\EAC\Valentina Babor - Piano Princess (2015) - FLAC\08 - Valentina Babor (Feat. David Garrett) - Anything For Love.wav
Peak level 91.3 % Extraction speed 4.0 X Track quality 100.0 % Test CRC BF20AFDE Copy CRC BF20AFDE Track not present in AccurateRip database Copy OK
Track 9
Filename E:\EAC\Valentina Babor - Piano Princess (2015) - FLAC\09 - Valentina Babor - Rhapsody In Blue.wav
Peak level 92.5 % Extraction speed 3.9 X Track quality 100.0 % Test CRC B99688D3 Copy CRC B99688D3 Track not present in AccurateRip database Copy OK
Track 10
Filename E:\EAC\Valentina Babor - Piano Princess (2015) - FLAC\10 - Valentina Babor - Revolutionary Etude.wav
Peak level 90.4 % Extraction speed 4.0 X Track quality 100.0 % Test CRC D2BAE87A Copy CRC D2BAE87A Track not present in AccurateRip database Copy OK
Track 11
Filename E:\EAC\Valentina Babor - Piano Princess (2015) - FLAC\11 - Valentina Babor - Donna Giovanna.wav
Peak level 92.5 % Extraction speed 3.6 X Track quality 99.9 % Test CRC F8B11832 Copy CRC F8B11832 Track not present in AccurateRip database Copy OK
Track 12
Filename E:\EAC\Valentina Babor - Piano Princess (2015) - FLAC\12 - Valentina Babor - Hungarian Rhapsody No. 2.wav
Pre-gap length 0:00:06.76
Peak level 94.4 % Extraction speed 4.9 X Track quality 100.0 % Test CRC 30687566 Copy CRC 30687566 Track not present in AccurateRip database Copy OK
None of the tracks are present in the AccurateRip database
No errors occurred
End of status report
---- CUETools DB Plugin V2.1.3
[CTDB TOCID: U2lEBgyGvbyPPAsKg_5v70V3JHM-] disk not present in database, Submit result: U2lEBgyGvbyPPAsKg_5v70V3JHM- has been uploaded
==== Log checksum AE3D0E80A0421F1B21EF75189BA1C0769433B6532BD0ECB93FED7D7F873DC5AC ====

Содержание индексной карты (.CUE)

REM GENRE ClassicalREM DATE 2015REM DISCID 9D0C4F0CREM COMMENT "ExactAudioCopy v1.0b3"CATALOG 4250216608910PERFORMER "Valentina Babor"TITLE "Piano Princess"FILE "01 - Valentina Babor - Children.wav" WAVE TRACK 01 AUDIO TITLE "Children" PERFORMER "Valentina Babor" ISRC DEDN51500286 INDEX 01 00:00:00FILE "02 - Valentina Babor - Nobody Does It Better.wav" WAVE TRACK 02 AUDIO TITLE "Nobody Does It Better" PERFORMER "Valentina Babor" ISRC DEDN51500291 INDEX 01 00:00:00FILE "03 - Valentina Babor - I Believe I Can Fly.wav" WAVE TRACK 03 AUDIO TITLE "I Believe I Can Fly" PERFORMER "Valentina Babor" ISRC DEDN51500288 INDEX 01 00:00:00FILE "04 - Valentina Babor - When The Rain Begins To Fall.wav" WAVE TRACK 04 AUDIO TITLE "When The Rain Begins To Fall" PERFORMER "Valentina Babor" ISRC DEDN51500295 INDEX 01 00:00:00FILE "05 - Valentina Babor - Just Give Me A Reason.wav" WAVE TRACK 05 AUDIO TITLE "Just Give Me A Reason" PERFORMER "Valentina Babor" ISRC DEDN51500289 INDEX 01 00:00:00 TRACK 06 AUDIO TITLE "Libertango" PERFORMER "Valentina Babor" ISRC DEDN51500289 INDEX 00 03:49:10FILE "06 - Valentina Babor - Libertango.wav" WAVE INDEX 01 00:00:00FILE "07 - Valentina Babor - Grande Sonate Pathйtique.wav" WAVE TRACK 07 AUDIO TITLE "Grande Sonate Pathйtique" PERFORMER "Valentina Babor" ISRC DEDN51500292 INDEX 01 00:00:00FILE "08 - Valentina Babor (Feat. David Garrett) - Anything For Love.wav" WAVE TRACK 08 AUDIO TITLE "Anything For Love" PERFORMER "Valentina Babor (Feat. David Garrett)" ISRC DEDN51500285 INDEX 01 00:00:00FILE "09 - Valentina Babor - Rhapsody In Blue.wav" WAVE TRACK 09 AUDIO TITLE "Rhapsody In Blue" PERFORMER "Valentina Babor" ISRC DEDN51500294 FLAGS DCP INDEX 01 00:00:00FILE "10 - Valentina Babor - Revolutionary Etude.wav" WAVE TRACK 10 AUDIO TITLE "Revolutionary Etude" PERFORMER "Valentina Babor" ISRC DEDN51500294 INDEX 01 00:00:00FILE "11 - Valentina Babor - Donna Giovanna.wav" WAVE TRACK 11 AUDIO TITLE "Donna Giovanna" PERFORMER "Valentina Babor" ISRC DEDN51500287 INDEX 01 00:00:00 TRACK 12 AUDIO TITLE "Hungarian Rhapsody No. 2" PERFORMER "Valentina Babor" ISRC DEDN51500296 INDEX 00 03:54:45FILE "12 - Valentina Babor - Hungarian Rhapsody No. 2.wav" WAVE INDEX 01 00:00:00

Лог проверки качества

Lossless Audio Checker 1.9.1 logfile from Sunday 13 December 2015 09:42:23 PM
File: M:\!!!\Valentina Babor - Piano Princess (2015) - FLAC\01 - Valentina Babor - Children.flacResult: LOSSLESS
File: M:\!!!\Valentina Babor - Piano Princess (2015) - FLAC\02 - Valentina Babor - Nobody Does It Better.flacResult: CUTOFF
File: M:\!!!\Valentina Babor - Piano Princess (2015) - FLAC\03 - Valentina Babor - I Believe I Can Fly.flacResult: CUTOFF
File: M:\!!!\Valentina Babor - Piano Princess (2015) - FLAC\04 - Valentina Babor - When The Rain Begins To Fall.flacResult: LOSSLESS
File: M:\!!!\Valentina Babor - Piano Princess (2015) - FLAC\05 - Valentina Babor - Just Give Me A Reason.flacResult: CUTOFF
File: M:\!!!\Valentina Babor - Piano Princess (2015) - FLAC\06 - Valentina Babor - Libertango.flacResult: LOSSLESS
File: M:\!!!\Valentina Babor - Piano Princess (2015) - FLAC\07 - Valentina Babor - Grande Sonate PathГ©tique.flacResult: CUTOFF
File: M:\!!!\Valentina Babor - Piano Princess (2015) - FLAC\08 - Valentina Babor (Feat. David Garrett) - Anything For Love.flacResult: LOSSLESS
File: M:\!!!\Valentina Babor - Piano Princess (2015) - FLAC\09 - Valentina Babor - Rhapsody In Blue.flacResult: LOSSLESS
File: M:\!!!\Valentina Babor - Piano Princess (2015) - FLAC\10 - Valentina Babor - Revolutionary Etude.flacResult: LOSSLESS
File: M:\!!!\Valentina Babor - Piano Princess (2015) - FLAC\11 - Valentina Babor - Donna Giovanna.flacResult: LOSSLESS
File: M:\!!!\Valentina Babor - Piano Princess (2015) - FLAC\12 - Valentina Babor - Hungarian Rhapsody No. 2.flacResult: CUTOFF
Files checked: 12 | Lossless: 7 | Cutoff: 5 | Error: 0 | Elapsed time: 00:00:36.790

Об исполнителе (группе)

Valentina Babor (born 8 July 1989) is a German classical pianist. She began performing before audiences and winning youth competitions as a child. At 12, she was accepted by Karl-Heinz Kämmerling at the Mozarteum, where she became part of the university's "Initiative Hochbegabten-Förderung", a program for highly gifted students. In 2009, barely an adult, she played Rachmaninoff's Piano Concerto in C minor in concert. She continues to perform internationally.

Об альбоме (сборнике)

David Garrett produziert Debüt-Album von Valentina Babor:
Es gibt sie, diese Geschichten, die so unwahrscheinlich klingen, dass man sie kaum glauben kann:
aus einer Zufallsbegegnung wird eine künstlerische Zusammenarbeit, aus der künstlerischen Zusammenarbeit wird eine Sensation! Im Frühling 2015 arbeiteten David Garrett und Valentina Babor in den legendären Avatar Studios in New York an dem Album, das nun den perfekten Soundtrack zum Sommer liefert.
'Piano Princess' ist Klavier-Crossover at it s best. Oder: Piano Princess ist wie eine Fahrt im offenen Cabrio entlang der blau-glitzernden Cote d azur! Auf der genial arrangierten Tracklist mit 11 Hits von Pink bis R. Kelly und Gershwin bis Chopin bleiben keine Wünsche offen. Valentina Babor verleiht den Balladen mit ihrem perlenden Spiel eine wunderbare Leichtigkeit und entfaltet volle Dynamik und Kraft bei beatgeladenen Songs wie Children von Robert Miles. Als Produzent hat David Garrett eine Dramaturgie in der Zusammenstellung der Songs gefunden, die aus der Chilloutzone in die Partylounge lockt. Von romantischen Songs wie Just give me a reason , in denen das Klavier wie mit Engelsflügeln gespielt zu sein scheint, bis hin zu voller Power bei Beethoven, ist der Spannungsbogen perfekt.



Показать сообщения:    

Текущее время: 19-Янв 16:04

Часовой пояс: UTC + 3


Вы не можете начинать темы
Вы не можете отвечать на сообщения
Вы не можете редактировать свои сообщения
Вы не можете удалять свои сообщения
Вы не можете голосовать в опросах
Вы не можете прикреплять файлы к сообщениям
Вы не можете скачивать файлы