(Score) Разыскивающий / Cruising (1980) (by Jack Nitzsche) - 2015, FLAC (image+.cue), lossless


Статистика раздачи [Обновить пиров]
Размер:  299 MB   |    Зарегистрирован:  11 месяцев 21 день   |    Скачан:  0 раз

Полного источника не было: Никогда

Личеров:  2  [  0 KB/s  ]   Подробная статистика пиров
 
   
 
 
 

[Цитировать]

Разыскивающий / Cruising Жанр: Soundtrack
Композитор: Jack Nitzsche
Год выпуска диска: 2015
Год выпуска фильма: 1980
Издатель (лейбл): Audio Fidelity
Номер по каталогу: AFZ 222
Аудиокодек: FLAC (*.flac)
Тип рипа: image+.cue
Битрейт аудио: lossless
Продолжительность: 27:55
Rip by flac jacket
Наличие сканов в содержимом раздачи: да
Треклист:
01. Heat Of The Night (Willy DeVille) (3:01)
02. Loneliness (The Cripples) (2:50)
03. Spy Boy (John Hiatt) (3:15)
04. When I Close My Eyes I See Blood (Madelynn Von Ritz) (2:03)
05. Lump (Mutiny) (4:35)
06. Shakedown (Rough Trade) (2:32)
07. Pullin' My String (Willy DeVille) (1:56)
08. Lions Share (Germs) (2:29)
09. Hypnotize (The Cripples) (2:56)
10. It's So Easy (Willy DeVille) (2:18)
 

Лог создания рипа

Exact Audio Copy V1.0 beta 2 from 29. April 2011
EAC extraction logfile from 29. November 2015, 18:09
Various Artists / Cruising (Original Motion Picture Soundtrack) (1980) [2015 Audio Fidelity SACD]
Used drive : HL-DT-STBD-RE BH14NS40 Adapter: 0 ID: 2
Read mode : SecureUtilize accurate stream : YesDefeat audio cache : YesMake use of C2 pointers : No
Read offset correction : 6Overread into Lead-In and Lead-Out : NoFill up missing offset samples with silence : YesDelete leading and trailing silent blocks : NoNull samples used in CRC calculations : YesUsed interface : Native Win32 interface for Win NT & 2000
Used output format : User Defined EncoderSelected bitrate : 1024 kBit/sQuality : HighAdd ID3 tag : NoCommand line compressor : C:\Program Files (x86)\Exact Audio Copy\Flac\flac.exeAdditional command line options : -V -0 -T "artist=%albumartist%" -T "title=%title%" -T "album=%albumtitle%" -T "date=%year%" -T "genre=%genre%" -T "tracknumber=%tracknr%" %source%
TOC of the extracted CD
Track | Start | Length | Start sector | End sector --------------------------------------------------------- 1 | 0:00.00 | 3:00.71 | 0 | 13570 2 | 3:00.71 | 2:50.02 | 13571 | 26322 3 | 5:50.73 | 3:14.47 | 26323 | 40919 4 | 9:05.45 | 2:03.06 | 40920 | 50150 5 | 11:08.51 | 4:35.20 | 50151 | 70795 6 | 15:43.71 | 2:31.57 | 70796 | 82177 7 | 18:15.53 | 1:56.03 | 82178 | 90880 8 | 20:11.56 | 2:29.28 | 90881 | 102083 9 | 22:41.09 | 2:55.72 | 102084 | 115280 10 | 25:37.06 | 2:18.30 | 115281 | 125660
Range status and errors
Selected range
Filename C:\EAC\Various Artists - Cruising (Original Motion Picture Soundtrack) (1980) [2015 Audio Fidelity SACD]\Various Artists - Cruising (Original Motion Picture Soundtrack) (1980) [2015 Audio Fidelity SACD].wav
Peak level 100.0 % Extraction speed 6.0 X Range quality 100.0 % Test CRC ED1A8B92 Copy CRC ED1A8B92 Copy OK
No errors occurred
AccurateRip summary
Track 1 not present in databaseTrack 2 not present in databaseTrack 3 not present in databaseTrack 4 not present in databaseTrack 5 not present in databaseTrack 6 not present in databaseTrack 7 not present in databaseTrack 8 not present in databaseTrack 9 not present in databaseTrack 10 not present in database
None of the tracks are present in the AccurateRip database
End of status report
==== Log checksum D9C067F1A3A082D62AF10FC22AEA336C795698AABDC28F0D85100F02BAACDAE0 ====
[teatrix.ru].t12215.torrent 
Торрент: Зарегистрирован [ 2015-12-15 20:55 ] · 4D84A89435FC6D01D12F9F705710C06EB2D52F41

Скачать .torrent

Скачать

13 KB

Статус: проверено
Скачан: 0 раз
Размер: 299 MB
terms.php



Быстрый ответ

Имя:

      
Для отправки сообщений необходимо включить JavaScript
Показать сообщения:    

Текущее время: 06-Дек 17:06

Часовой пояс: UTC + 3


Вы можете начинать темы
Вы можете отвечать на сообщения
Вы не можете редактировать свои сообщения
Вы не можете удалять свои сообщения
Вы не можете голосовать в опросах
Вы не можете прикреплять файлы к сообщениям
Вы можете скачивать файлы