(Classical) Franz Schubert - Complete Symphonies - Les Musiciens du Louvre Grenoble, Marc Minkowski - 4CD - 2012, FLAC (image+.cue) lossless


 

[Цитировать]

Franz Schubert - Complete Symphonies - Les Musiciens du Louvre Grenoble, Marc Minkowski
Жанр: Classical
Страна-производитель диска: France
Год издания диска: 2012
Издатель (лейбл): Naive
Дата записи: 2012
Аудиокодек: FLAC
Тип рипа: image+.cue
Битрейт аудио: lossless
Продолжительность: 4:04:00
Источник: собственный рип
Наличие сканов в содержимом раздачи: да
Треклист:
Franz Schubert (1797-1828)
CD1
[1]-[4] Symphony No.3 in D major, D200 (1815)
[5]-[8] Symphony No.1 in D major, D82 (1813)
[9]-[12] Symphony No.2 in B flat major, D125 (1814-1815)
CD2
[1]-[4] Symphony No.5 in B flat major, D485 (1816)
[5]-[8] Symphony No.4 in C minor 'Tragic', D417 (1816)
CD3
[1]-[2] Symphony No.7(8) in B minor 'Unfinished', D759 (1822)
[3]-[6] Symphony No.6 in C major 'Little C major', D589 (1817-1818)
CD4
[1]-[4] Symphony No.8(9) in C major 'Great C major', D944 (1825?-1828)
Исполнители:
Les Musiciens du Louvre Grenoble
Marc Minkowski

Хорошее, просто очень хорошее исполнение!

Лог создания рипа: CD1

Exact Audio Copy V1.0 beta 3 from 29. August 2011
EAC extraction logfile from 1. March 2013, 14:43
Les Musiciens du Louvre Grenoble, Marc Minkowski / Schubert - Complete Symphonies - CD1
Used drive : HL-DT-STDVDRRW GWA-4164B Adapter: 5 ID: 0
Read mode : SecureUtilize accurate stream : YesDefeat audio cache : YesMake use of C2 pointers : No
Read offset correction : 102Overread into Lead-In and Lead-Out : NoFill up missing offset samples with silence : YesDelete leading and trailing silent blocks : NoNull samples used in CRC calculations : YesUsed interface : Native Win32 interface for Win NT & 2000
Used output format : User Defined EncoderSelected bitrate : 896 kBit/sQuality : HighAdd ID3 tag : NoCommand line compressor : C:\Program Files\Exact Audio Copy\FLAC\FLAC.EXEAdditional command line options : -V -8 %source%
TOC of the extracted CD
Track | Start | Length | Start sector | End sector --------------------------------------------------------- 1 | 0:00.00 | 9:06.63 | 0 | 41012 2 | 9:06.63 | 4:30.65 | 41013 | 61327 3 | 13:37.53 | 3:34.02 | 61328 | 77379 4 | 17:11.55 | 6:22.50 | 77380 | 106079 5 | 23:34.30 | 8:25.31 | 106080 | 143985 6 | 31:59.61 | 7:56.02 | 143986 | 179687 7 | 39:55.63 | 4:18.00 | 179688 | 199037 8 | 44:13.63 | 5:59.05 | 199038 | 225967 9 | 50:12.68 | 10:10.69 | 225968 | 271786 10 | 60:23.62 | 7:32.60 | 271787 | 305746 11 | 67:56.47 | 2:48.53 | 305747 | 318399 12 | 70:45.25 | 5:30.19 | 318400 | 343168
Range status and errors
Selected range
Filename C:\temp\Schubert - Complete Symphonies - Minkowski\Schubert - Complete Symphonies - CD1.wav
Peak level 98.2 % Extraction speed 3.0 X Range quality 99.9 % Test CRC 383F68B8 Copy CRC 383F68B8 Copy OK
No errors occurred
End of status report
==== Log checksum 492339CF86F9CFC35B5CE268010131D8268EB894B68C7F89F89A7D529602CF8A ====

Лог создания рипа: CD2

Exact Audio Copy V1.0 beta 3 from 29. August 2011
EAC extraction logfile from 1. March 2013, 15:34
Les Musiciens du Louvre Grenoble, Marc Minkowski / Schubert - Complete Symphonies - CD2
Used drive : HL-DT-STDVDRRW GWA-4164B Adapter: 5 ID: 0
Read mode : SecureUtilize accurate stream : YesDefeat audio cache : YesMake use of C2 pointers : No
Read offset correction : 102Overread into Lead-In and Lead-Out : NoFill up missing offset samples with silence : YesDelete leading and trailing silent blocks : NoNull samples used in CRC calculations : YesUsed interface : Native Win32 interface for Win NT & 2000
Used output format : User Defined EncoderSelected bitrate : 896 kBit/sQuality : HighAdd ID3 tag : NoCommand line compressor : C:\Program Files\Exact Audio Copy\FLAC\FLAC.EXEAdditional command line options : -V -8 %source%
TOC of the extracted CD
Track | Start | Length | Start sector | End sector --------------------------------------------------------- 1 | 0:00.00 | 7:13.66 | 0 | 32540 2 | 7:13.66 | 9:49.52 | 32541 | 76767 3 | 17:03.43 | 5:03.12 | 76768 | 99504 4 | 22:06.55 | 7:05.70 | 99505 | 131449 5 | 29:12.50 | 9:40.49 | 131450 | 174998 6 | 38:53.24 | 9:19.72 | 174999 | 216995 7 | 48:13.21 | 3:11.45 | 216996 | 231365 8 | 51:24.66 | 7:24.04 | 231366 | 264669
Range status and errors
Selected range
Filename C:\temp\Schubert - Complete Symphonies - Minkowski\Schubert - Complete Symphonies - CD2.wav
Peak level 88.7 % Extraction speed 2.7 X Range quality 100.0 % Test CRC AC0EB81C Copy CRC AC0EB81C Copy OK
No errors occurred
End of status report
==== Log checksum 8B557B7403309A908B97BDB3F648ADDDCF0BEEA3D4164A46BC3BD6C5F56911BB ====

Лог создания рипа: CD3

Exact Audio Copy V1.0 beta 3 from 29. August 2011
EAC extraction logfile from 1. March 2013, 16:23
Les Musiciens du Louvre Grenoble, Marc Minkowski / Schubert - Complete Symphonies - CD3
Used drive : HL-DT-STDVDRRW GWA-4164B Adapter: 5 ID: 0
Read mode : SecureUtilize accurate stream : YesDefeat audio cache : YesMake use of C2 pointers : No
Read offset correction : 102Overread into Lead-In and Lead-Out : NoFill up missing offset samples with silence : YesDelete leading and trailing silent blocks : NoNull samples used in CRC calculations : YesUsed interface : Native Win32 interface for Win NT & 2000
Used output format : User Defined EncoderSelected bitrate : 896 kBit/sQuality : HighAdd ID3 tag : NoCommand line compressor : C:\Program Files\Exact Audio Copy\FLAC\FLAC.EXEAdditional command line options : -V -8 %source%
TOC of the extracted CD
Track | Start | Length | Start sector | End sector --------------------------------------------------------- 1 | 0:00.00 | 15:09.03 | 0 | 68177 2 | 15:09.03 | 11:34.68 | 68178 | 120295 3 | 26:43.71 | 9:08.25 | 120296 | 161420 4 | 35:52.21 | 5:29.26 | 161421 | 186121 5 | 41:21.47 | 6:07.19 | 186122 | 213665 6 | 47:28.66 | 10:00.52 | 213666 | 258717
Range status and errors
Selected range
Filename C:\temp\Schubert - Complete Symphonies - Minkowski\Schubert - Complete Symphonies - CD3.wav
Peak level 99.6 % Extraction speed 2.7 X Range quality 100.0 % Test CRC 4A278A94 Copy CRC 4A278A94 Copy OK
No errors occurred
End of status report
==== Log checksum 82EB8898095B59EC8013070835165AC081BCF71775869D66F9B6AAB1223AD275 ====

Лог создания рипа: CD4

Exact Audio Copy V1.0 beta 3 from 29. August 2011
EAC extraction logfile from 1. March 2013, 17:12
Les Musiciens du Louvre Grenoble, Marc Minkowski / Schubert - Complete Symphonies - CD4
Used drive : HL-DT-STDVDRRW GWA-4164B Adapter: 5 ID: 0
Read mode : SecureUtilize accurate stream : YesDefeat audio cache : YesMake use of C2 pointers : No
Read offset correction : 102Overread into Lead-In and Lead-Out : NoFill up missing offset samples with silence : YesDelete leading and trailing silent blocks : NoNull samples used in CRC calculations : YesUsed interface : Native Win32 interface for Win NT & 2000
Used output format : User Defined EncoderSelected bitrate : 896 kBit/sQuality : HighAdd ID3 tag : NoCommand line compressor : C:\Program Files\Exact Audio Copy\FLAC\FLAC.EXEAdditional command line options : -V -8 %source%
TOC of the extracted CD
Track | Start | Length | Start sector | End sector --------------------------------------------------------- 1 | 0:00.00 | 16:49.57 | 0 | 75731 2 | 16:49.57 | 14:31.37 | 75732 | 141093 3 | 31:21.19 | 11:54.68 | 141094 | 194711 4 | 43:16.12 | 11:29.40 | 194712 | 246426
Range status and errors
Selected range
Filename C:\temp\Schubert - Complete Symphonies - Minkowski\Schubert - Complete Symphonies - CD4.wav
Peak level 97.6 % Extraction speed 2.7 X Range quality 100.0 % Test CRC 8D9ECAC8 Copy CRC 8D9ECAC8 Copy OK
No errors occurred
End of status report
==== Log checksum 7AB9611FB70B5F8158E918E39B4F0F386A3C529D57F3E9CF8C7314A474D193D0 ====



Показать сообщения:    

Текущее время: 07-Дек 15:26

Часовой пояс: UTC + 3


Вы не можете начинать темы
Вы не можете отвечать на сообщения
Вы не можете редактировать свои сообщения
Вы не можете удалять свои сообщения
Вы не можете голосовать в опросах
Вы не можете прикреплять файлы к сообщениям
Вы не можете скачивать файлы