Потанцуем? / Come Dancing (Билл Дуглас / Bill Douglas) [1971, Великобритания, короткий метр, DVDRip] Sub Rus + Original Eng


Статистика раздачи [Обновить пиров]
Размер:  184 MB   |    Зарегистрирован:  11 месяцев 18 дней   |    Скачан:  1 раз

Полного источника не было: 11 месяцев 8 дней

Личеров:  3  [  0 KB/s  ]   Подробная статистика пиров
 
   
 
 
 

[Цитировать]

Потанцуем? / Come Dancing
Страна: Великобритания
Жанр: короткий метр
Год выпуска: 1971
Продолжительность: 00:13:23
Перевод: субтитры
Cубтитры: русские, английские
Оригинальная аудиодорожка: английский
Режиссер: Билл Дуглас / Bill Douglas
В ролях: Клайв Меррисон, Майкл Элвик, Николь Андерсон, Верити Баргейт
Описание: Одним туманным днём двое мужчин встречаются на пирсе в Саутенде...
Короткометражный фильм, снятый Биллом Дугласом в период обучения в Лондонской Киношколе.
Включен в состав двухдискового издания "Трилогии Билла Дугласа",
выпущенного Британским КиноИнститутом (BFI) в 2008 году -
Bill Douglas Trilogy 1972-1978 2 Disc Set DVD9+DVD5 R2 BFI
Доп. информация: http://www.imdb.com/title/tt0350729/
http://www.bfi.org.uk/blu-rays-dvds/bill-douglas-tr...tion-blu-ray-dvd
Сэмпл: http://sendfile.su/1183352
Качество видео: DVDRip
Формат видео: AVI
Видео: Xvid 640x480 (4:3) 25fps 1780kbps
Аудио: MP3 48000Hz stereo 128kbps
Формат субтитров: softsub (SRT)

MediaInfo

General
Complete name : D:\Come.Dancing.1971.Bill.Douglas.avi
Format : AVI
Format/Info : Audio Video Interleave
File size : 184 MiB
Duration : 13mn 22s
Overall bit rate : 1 918 Kbps
Writing application : VirtualDubMod 1.5.10.2 (build 2540/release)
Writing library : VirtualDubMod build 2540/release
Video
ID : 0
Format : MPEG-4 Visual
Format profile : Advanced Simple@L5
Format settings, BVOP : 2
Format settings, QPel : No
Format settings, GMC : No warppoints
Format settings, Matrix : Default (H.263)
Muxing mode : Packed bitstream
Codec ID : XVID
Codec ID/Hint : XviD
Duration : 13mn 22s
Bit rate : 1 780 Kbps
Width : 640 pixels
Height : 480 pixels
Display aspect ratio : 4:3
Frame rate : 25.000 fps
Color space : YUV
Chroma subsampling : 4:2:0
Bit depth : 8 bits
Scan type : Progressive
Compression mode : Lossy
Bits/(Pixel*Frame) : 0.232
Stream size : 170 MiB (93%)
Writing library : XviD 1.2.1 (UTC 2008-12-04)
Audio
ID : 1
Format : MPEG Audio
Format version : Version 1
Format profile : Layer 3
Mode : Joint stereo
Mode extension : MS Stereo
Codec ID : 55
Codec ID/Hint : MP3
Duration : 13mn 21s
Bit rate mode : Constant
Bit rate : 128 Kbps
Channel(s) : 2 channels
Sampling rate : 48.0 KHz
Compression mode : Lossy
Stream size : 12.2 MiB (7%)
Alignment : Aligned on interleaves
Interleave, duration : 40 ms (1.00 video frame)
Interleave, preload duration : 504 ms

Фрагмент субтитров

1
00:00:03,000 --> 00:00:06,000
ПОТАНЦУЕМ?
2
00:02:03,840 --> 00:02:07,083
...Девушки одеты в пышный черный шифон
3
00:02:07,160 --> 00:02:09,128
с тысячами серебряных блёсток.
4
00:02:10,040 --> 00:02:12,566
Каждая блёстка пришита вручную.
5
00:02:58,200 --> 00:03:03,809
Всё вместе создаёт восхитительный
контраст с вечерними костюмами мужчин.
6
00:04:00,000 --> 00:04:01,968
Чай.
7
00:05:19,680 --> 00:05:21,091
Огонька не найдётся?
8
00:05:23,360 --> 00:05:27,922
...Пары демонстрируют
превосходную слаженность движений.
9
00:05:45,880 --> 00:05:47,848
Не люблю с фильтром.
10
00:06:16,200 --> 00:06:18,168
Мне раньше нравилось делать лодки.
11
00:06:22,680 --> 00:06:24,648
Не знаю, почему.
12
00:06:25,560 --> 00:06:27,528
Никогда не мог заставить их плавать.
13
00:07:15,240 --> 00:07:17,208
А где все?
14
00:07:19,480 --> 00:07:21,642
Тут как в морге.
15
00:07:27,920 --> 00:07:29,888
Забронировано на лето.
[teatrix.ru].t12222.torrent 
Торрент: Зарегистрирован [ 2015-12-16 01:05 ] · EA3520539202D2EAB87AF7E173CBF796A29353C4

Скачать .torrent

Скачать

15 KB

Статус: проверено
Скачан: 1 раз
Размер: 184 MB
terms.php



Быстрый ответ

Имя:

      
Для отправки сообщений необходимо включить JavaScript
Показать сообщения:    

Текущее время: 03-Дек 09:49

Часовой пояс: UTC + 3


Вы можете начинать темы
Вы можете отвечать на сообщения
Вы не можете редактировать свои сообщения
Вы не можете удалять свои сообщения
Вы не можете голосовать в опросах
Вы не можете прикреплять файлы к сообщениям
Вы можете скачивать файлы