Джузеппе Верди - Жанна д’Арк (Анна Нетребко) / Giuseppe Verdi - Giovanna d’Arco (Anna Netrebko, Francesco Meli, Devid Cecconi, Dmitry Beloselskiy) [2015, Opera, HDTVRip-AVC 720p] Sub [Русские][German hardsub]


 

[Цитировать]

-Открытие нового сезона в Ла Скала!
Джузеппе Верди
10 октября (October 10,) 1813 — 27 января (January 27,) 1901
»«ЖАННА д'АРК»«
Либретто Темистокле Солера (Temistocle Soler, 1815-1878)
по мотивам драмы Фридриха Шиллера "Орлеaнская дева" (1801)
--

ПОСТАНОВКА Моше ЛЯЙЗЕР и Патрис КОРЬЕ
Moshe Leiser & Patrice Caurier

Год записи 2015
Лейбл: ARTE
Жанр: Opera
Язык: Итальянский
ПЕРЕВОД: sub-opera.narod.ru [Спасибо, БОРИС]
Субтитры/Subtitles: РУССКИЕ,
German hardsub
Продолжительность: 126 min.
Исполнители:
ЖАННА Анна НЕТРЕБКО Anna Netrebko
КАРЛ VII Франческо МЕЛИ Francesco Meli
ДЖАКОМО Девид ЧЕККОНИ Devid Cecconi
ДЕЛИЛ Микеле МАУРО Michele Mauro
ТАЛЬБОТ Дмитрий БЕЛОСЕЛЬСКИЙ Dmitry Beloselskiy
ХОР и ОРКЕСТР театра "Ла Скала"
ДИРИЖЁР
Риккардо ШАЙИ Riccardo Chailly
Качество видео: HDTVRip-AVC
Исходник: FHD [Спасибо, amrita]
Контейнер: MKV
Видео кодек: H.264
Аудио кодек: AC3
Видео поток: 1280x720, 4000 kbps, 25,000 fps.
Аудио поток: Italian, 448 kbps, 48,0 KHz, 16 bit, 6 ch original

Скриншоты

MediaInfoPart1


-

x264.log


avs [info]: 1280x720p 1:1 @ 25/1 fps (cfr)
x264 [info]: using SAR=1/1
x264 [info]: using cpu capabilities: MMX2 SSE2Fast LZCNT
x264 [info]: profile High, level 4.1
x264 [info]: frame I:698 Avg QP:17.21 size: 75856
x264 [info]: frame P:82131 Avg QP:19.97 size: 24028
x264 [info]: frame B:32658 Avg QP:21.02 size: 8683
x264 [info]: consecutive B-frames: 48.4% 40.1% 4.4% 7.1%
x264 [info]: mb I I16..4: 10.0% 69.7% 20.2%
x264 [info]: mb P I16..4: 1.6% 6.2% 0.4% P16..4: 47.5% 16.4% 11.8% 0.0% 0.0% skip:16.1%
x264 [info]: mb B I16..4: 0.2% 0.4% 0.0% B16..8: 38.3% 5.2% 1.1% direct: 5.4% skip:49.5% L0:41.3% L1:48.9% BI: 9.7%
x264 [info]: 8x8 transform intra:75.0% inter:72.5%
x264 [info]: direct mvs spatial:77.7% temporal:22.3%
x264 [info]: coded y,uvDC,uvAC intra: 53.3% 57.2% 22.3% inter: 30.5% 32.5% 2.1%
x264 [info]: i16 v,h,dc,p: 50% 20% 17% 13%
x264 [info]: i8 v,h,dc,ddl,ddr,vr,hd,vl,hu: 13% 9% 51% 4% 5% 5% 4% 4% 4%
x264 [info]: i4 v,h,dc,ddl,ddr,vr,hd,vl,hu: 24% 15% 21% 5% 8% 8% 7% 6% 5%
x264 [info]: i8c dc,h,v,p: 61% 17% 18% 4%
x264 [info]: Weighted P-Frames: Y:1.9% UV:0.9%
x264 [info]: ref P L0: 53.2% 8.9% 23.7% 14.1% 0.1%
x264 [info]: ref B L0: 71.1% 27.6% 1.4%
x264 [info]: ref B L1: 97.4% 2.6%
x264 [info]: kb/s:4000.34
encoded 115487 frames, 11.38 fps, 4000.34 kb/s
Final statistics
-
General
Unique ID : 239535150895902672563650871350267131034 (0xB434CABF7CE6B043BC6ADBD8CE12B49A)
Complete name : G. Verdi - Giovanna d'Arco (La Scala, 2015)\Giovanna d'Arco (La Scala, 2015) Pt1.mkv
Format : Matroska
Format version : Version 4 / Version 2
File size : 2.39 GiB
Duration : 1h 16mn
Overall bit rate : 4 450 Kbps
Encoded date : UTC 2015-12-14 20:31:50
Writing application : mkvmerge v8.3.0 ('Over the Horizon') 32bit
Writing library : libebml v1.3.1 + libmatroska v1.4.2
Video
ID : 1
Format : AVC
Format/Info : Advanced Video Codec
Format profile : High@L4.1
Format settings, CABAC : Yes
Format settings, ReFrames : 4 frames
Codec ID : V_MPEG4/ISO/AVC
Duration : 1h 16mn
Bit rate : 4 000 Kbps
Width : 1 280 pixels
Height : 720 pixels
Display aspect ratio : 16:9
Frame rate mode : Constant
Frame rate : 25.000 fps
Color space : YUV
Chroma subsampling : 4:2:0
Bit depth : 8 bits
Scan type : Progressive
Bits/(Pixel*Frame) : 0.174
Stream size : 2.10 GiB (88%)
Writing library : x264 core 146 r2538 121396c
Encoding settings : cabac=1 / ref=3 / deblock=1:0:0 / analyse=0x3:0x113 / me=hex / subme=7 / psy=1 / psy_rd=1.00:0.00 / mixed_ref=1 / me_range=16 / chroma_me=1 / trellis=1 / 8x8dct=1 / cqm=0 / deadzone=21,11 / fast_pskip=1 / chroma_qp_offset=-2 / threads=4 / lookahead_threads=1 / sliced_threads=0 / nr=0 / decimate=1 / interlaced=0 / bluray_compat=0 / constrained_intra=0 / bframes=3 / b_pyramid=2 / b_adapt=1 / b_bias=0 / direct=3 / weightb=1 / open_gop=0 / weightp=2 / keyint=250 / keyint_min=25 / scenecut=40 / intra_refresh=0 / rc_lookahead=40 / rc=2pass / mbtree=1 / bitrate=4000 / ratetol=1.0 / qcomp=0.60 / qpmin=0 / qpmax=69 / qpstep=4 / cplxblur=20.0 / qblur=0.5 / vbv_maxrate=50000 / vbv_bufsize=62500 / nal_hrd=none / filler=0 / ip_ratio=1.40 / aq=1:1.00
Default : Yes
Forced : No
Audio
ID : 2
Format : AC-3
Format/Info : Audio Coding 3
Mode extension : CM (complete main)
Format settings, Endianness : Big
Codec ID : A_AC3
Duration : 1h 16mn
Bit rate mode : Constant
Bit rate : 448 Kbps
Channel(s) : 6 channels
Channel positions : Front: L C R, Side: L R, LFE
Sampling rate : 48.0 KHz
Compression mode : Lossy
Stream size : 247 MiB (10%)
Language : Italian
Default : Yes
Forced : No
Text
ID : 3
Format : ASS
Codec ID : S_TEXT/ASS
Codec ID/Info : Advanced Sub Station Alpha
Compression mode : Lossless
Language : Russian
Default : Yes
Forced : Yes

Part2


-

x264.log


avs [info]: 1280x720p 1:1 @ 25/1 fps (cfr)
x264 [info]: using SAR=1/1
x264 [info]: using cpu capabilities: MMX2 SSE2Fast LZCNT
x264 [info]: profile High, level 4.1
x264 [info]: frame I:549 Avg QP:17.94 size: 87782
x264 [info]: frame P:59480 Avg QP:20.75 size: 25491
x264 [info]: frame B:31468 Avg QP:22.07 size: 8442
x264 [info]: consecutive B-frames: 39.3% 42.4% 6.3% 12.0%
x264 [info]: mb I I16..4: 8.8% 68.6% 22.6%
x264 [info]: mb P I16..4: 0.9% 5.4% 0.4% P16..4: 48.9% 17.8% 12.5% 0.0% 0.0% skip:14.1%
x264 [info]: mb B I16..4: 0.1% 0.5% 0.0% B16..8: 39.1% 5.2% 1.1% direct: 4.6% skip:49.4% L0:40.7% L1:49.8% BI: 9.4%
x264 [info]: 8x8 transform intra:78.3% inter:69.9%
x264 [info]: direct mvs spatial:84.4% temporal:15.6%
x264 [info]: coded y,uvDC,uvAC intra: 66.8% 59.0% 21.1% inter: 31.6% 30.8% 1.3%
x264 [info]: i16 v,h,dc,p: 49% 19% 17% 15%
x264 [info]: i8 v,h,dc,ddl,ddr,vr,hd,vl,hu: 14% 9% 46% 5% 6% 6% 5% 6% 5%
x264 [info]: i4 v,h,dc,ddl,ddr,vr,hd,vl,hu: 25% 14% 19% 6% 8% 9% 7% 7% 5%
x264 [info]: i8c dc,h,v,p: 61% 16% 19% 4%
x264 [info]: Weighted P-Frames: Y:0.8% UV:0.3%
x264 [info]: ref P L0: 53.5% 10.1% 22.9% 13.4% 0.1%
x264 [info]: ref B L0: 72.5% 25.7% 1.8%
x264 [info]: ref B L1: 96.8% 3.2%
x264 [info]: kb/s:4000.25
encoded 91497 frames, 9.90 fps, 4000.25 kb/s
Final statistics
-
General
Unique ID : 170954393289275799990257967089197220528 (0x809C9E5711265C2292D96B8CB06F82B0)
Complete name : G. Verdi - Giovanna d'Arco (La Scala, 2015)\Giovanna d'Arco (La Scala, 2015) Pt2.mkv
Format : Matroska
Format version : Version 4 / Version 2
File size : 1.90 GiB
Duration : 1h 0mn
Overall bit rate : 4 450 Kbps
Encoded date : UTC 2015-12-14 20:33:50
Writing application : mkvmerge v8.3.0 ('Over the Horizon') 32bit
Writing library : libebml v1.3.1 + libmatroska v1.4.2
Video
ID : 1
Format : AVC
Format/Info : Advanced Video Codec
Format profile : High@L4.1
Format settings, CABAC : Yes
Format settings, ReFrames : 4 frames
Codec ID : V_MPEG4/ISO/AVC
Duration : 1h 0mn
Bit rate : 4 000 Kbps
Width : 1 280 pixels
Height : 720 pixels
Display aspect ratio : 16:9
Frame rate mode : Constant
Frame rate : 25.000 fps
Color space : YUV
Chroma subsampling : 4:2:0
Bit depth : 8 bits
Scan type : Progressive
Bits/(Pixel*Frame) : 0.174
Stream size : 1.67 GiB (88%)
Writing library : x264 core 148 r2638 7599210
Encoding settings : cabac=1 / ref=3 / deblock=1:0:0 / analyse=0x3:0x113 / me=hex / subme=7 / psy=1 / psy_rd=1.00:0.00 / mixed_ref=1 / me_range=16 / chroma_me=1 / trellis=1 / 8x8dct=1 / cqm=0 / deadzone=21,11 / fast_pskip=1 / chroma_qp_offset=-2 / threads=4 / lookahead_threads=1 / sliced_threads=0 / nr=0 / decimate=1 / interlaced=0 / bluray_compat=0 / constrained_intra=0 / bframes=3 / b_pyramid=2 / b_adapt=1 / b_bias=0 / direct=3 / weightb=1 / open_gop=0 / weightp=2 / keyint=250 / keyint_min=25 / scenecut=40 / intra_refresh=0 / rc_lookahead=40 / rc=2pass / mbtree=1 / bitrate=4000 / ratetol=1.0 / qcomp=0.60 / qpmin=0 / qpmax=69 / qpstep=4 / cplxblur=20.0 / qblur=0.5 / vbv_maxrate=50000 / vbv_bufsize=62500 / nal_hrd=none / filler=0 / ip_ratio=1.40 / aq=1:1.00
Default : Yes
Forced : No
Audio
ID : 2
Format : AC-3
Format/Info : Audio Coding 3
Mode extension : CM (complete main)
Format settings, Endianness : Big
Codec ID : A_AC3
Duration : 1h 0mn
Bit rate mode : Constant
Bit rate : 448 Kbps
Channel(s) : 6 channels
Channel positions : Front: L C R, Side: L R, LFE
Sampling rate : 48.0 KHz
Compression mode : Lossy
Delay relative to video : 20ms
Stream size : 195 MiB (10%)
Language : Italian
Default : Yes
Forced : No
Text
ID : 3
Format : ASS
Codec ID : S_TEXT/ASS
Codec ID/Info : Advanced Sub Station Alpha
Compression mode : Lossless
Language : Russian
Default : Yes
Forced : Yes



Показать сообщения:    

Текущее время: 05-Дек 01:22

Часовой пояс: UTC + 3


Вы не можете начинать темы
Вы не можете отвечать на сообщения
Вы не можете редактировать свои сообщения
Вы не можете удалять свои сообщения
Вы не можете голосовать в опросах
Вы не можете прикреплять файлы к сообщениям
Вы не можете скачивать файлы