Возвращение на круги своя (Рубен Агамирзян, Валерий Суслов) [1978 г., Драматическая баллада, экранизация, телеспектакль, WEB-DLRip] Ленинградский драматический театр им. В. Ф. Комиссаржевской


 

[Цитировать]

Возвращение на круги своя (2 части) Год выпуска: Ленинградский драматический театр им. В. Ф. Комиссаржевской.
Год выпуска: 1978.
Жанр: Драматическая баллада в двух частях, экранизация, телеспектакль.
Продолжительность: 01:31:54 + 01:17:40 (02:48:34).
Режиссеры: Рубен Агамирзян, Валерий Суслов.
Действующие лица и исполнители:
Лев Николаевич Толстой - заслуженный артист РСФСР Сергей Поначевный,
Софья Андреевна Толстая - заслуженная артистка Белорусской ССР Валентина Чемберг,
Дети Толстых:
Лев Львович
- Владимир Летенков,
Татьяна Львовна - Наталья Орлова,
Александра Львовна - заслуженная артистка РСФСР Тамара Абросимова,
Валентин Фёдорович Булгаков, секретарь Толстого - заслуженный артист РСФСР Станислав Ландграф,
Душан Петрович Маковицкий, врач - Борис Соколов,
Александр Борисович Гольденвейзер, пианист - Владимир Особик,
Ахмет, охранник имения - М. Матвеев,
Фаддей, нищий - Евгений Покрамович,
Федотка, крестьянин - Николай Муравьев.
В остальных ролях артисты Ленинградского драматического театра им. В. Ф. Комиссаржевской - Георгий Рубин, А. Акулич, Н. Титова, Клавдия Фадеева, Александра Дельвин, М. Митин, Юрий Сафронов, Светлана Степанова.
О спектакле:
Телеспектакль по по повести Иона Друцэ.
"Возвращение на круги своя" - художественный рассказ (во многом документальный) о последних днях Льва Николаевича Толстого.

Дополнительная информация:
Страна: СССР .
Выпущено: Ленинградское телевидение.
Автор: Ион Друцэ.
Сценарий и постановка: Рубен Агамирзян.
Режиссер: Валерий Суслов.
Ведущий оператор: Виктор Бочаров.
Художники: Игорь Иванов, В. Бондаренко.

Релиз
Рип lesik689.

Качество видео:...WEB-DLRip
Формат:.................AVI
Видео:..640x480 (1.33:1), 25 fps, XviD build 73 ~1800 kbps avg, 0.23 bit/pixel
Аудио:..44.100 kHz, MPEG Layer 3, 2 ch, ~128.00 kbps avg

Отчет Media Info

1-я часть:
General
Complete name : Vozvrawenie.na.krugi.svoya.(2.serii).1978.XviD.WEB-DLRip.fenixclub\Vozvrawenie.na.krugi.svoya.1978.Chast'_1.avi
Format : AVI
Format/Info : Audio Video Interleave
File size : 1.24 GiB
Duration : 1h 31mn
Overall bit rate : 1 938 Kbps
Video
ID : 0
Format : MPEG-4 Visual
Format profile : Advanced Simple@L5
Format settings, BVOP : 2
Format settings, QPel : No
Format settings, GMC : No warppoints
Format settings, Matrix : Default (MPEG)
Codec ID : XVID
Codec ID/Hint : XviD
Duration : 1h 31mn
Bit rate : 1 801 Kbps
Width : 640 pixels
Height : 480 pixels
Display aspect ratio : 4:3
Frame rate : 25.000 fps
Color space : YUV
Chroma subsampling : 4:2:0
Bit depth : 8 bits
Scan type : Progressive
Compression mode : Lossy
Bits/(Pixel*Frame) : 0.234
Stream size : 1.16 GiB (93%)
Writing library : XviD 73
Audio
ID : 1
Format : MPEG Audio
Format version : Version 1
Format profile : Layer 3
Mode : Joint stereo
Mode extension : MS Stereo
Codec ID : 55
Codec ID/Hint : MP3
Duration : 1h 31mn
Bit rate mode : Constant
Bit rate : 128 Kbps
Channel(s) : 2 channels
Sampling rate : 44.1 KHz
Compression mode : Lossy
Stream size : 83.9 MiB (7%)
Alignment : Split accross interleaves
Interleave, duration : 40 ms (1.00 video frame)
Interleave, preload duratio : 501 ms
General
Complete name : Vozvrawenie.na.krugi.svoya.(2.serii).1978.XviD.WEB-DLRip.fenixclub\Vozvrawenie.na.krugi.svoya.1978.Chast'_2.avi
Format : AVI
Format/Info : Audio Video Interleave
File size : 1.05 GiB
Duration : 1h 17mn
Overall bit rate : 1 938 Kbps
Video
ID : 0
Format : MPEG-4 Visual
Format profile : Advanced Simple@L5
Format settings, BVOP : 2
Format settings, QPel : No
Format settings, GMC : No warppoints
Format settings, Matrix : Default (MPEG)
Codec ID : XVID
Codec ID/Hint : XviD
Duration : 1h 17mn
Bit rate : 1 801 Kbps
Width : 640 pixels
Height : 480 pixels
Display aspect ratio : 4:3
Frame rate : 25.000 fps
Color space : YUV
Chroma subsampling : 4:2:0
Bit depth : 8 bits
Scan type : Progressive
Compression mode : Lossy
Bits/(Pixel*Frame) : 0.234
Stream size : 1 000 MiB (93%)
Writing library : XviD 73
Audio
ID : 1
Format : MPEG Audio
Format version : Version 1
Format profile : Layer 3
Mode : Joint stereo
Mode extension : MS Stereo
Codec ID : 55
Codec ID/Hint : MP3
Duration : 1h 17mn
Bit rate mode : Constant
Bit rate : 128 Kbps
Channel(s) : 2 channels
Sampling rate : 44.1 KHz
Compression mode : Lossy
Stream size : 70.9 MiB (7%)
Alignment : Split accross interleaves
Interleave, duration : 40 ms (1.00 video frame)
Interleave, preload duratio : 501 ms

Скриншоты


Альтернативный хост





Показать сообщения:    

Текущее время: 11-Дек 14:56

Часовой пояс: UTC + 3


Вы не можете начинать темы
Вы не можете отвечать на сообщения
Вы не можете редактировать свои сообщения
Вы не можете удалять свои сообщения
Вы не можете голосовать в опросах
Вы не можете прикреплять файлы к сообщениям
Вы не можете скачивать файлы