(Classical) Domenico Scarlatti - Sacred Music: Stabat Mater; Missa Breve; Te Deum; Iste Confessor - The Sixteen, Harry Christophers - 2001, FLAC (image+.cue) lossless


Статистика раздачи [Обновить пиров]
Размер:  223 MB   |    Зарегистрирован:  11 месяцев 23 дня   |    Скачан:  0 раз

Полного источника не было: Никогда

Личеров:  2  [  0 KB/s  ]   Подробная статистика пиров
 
   
 
 
 

[Цитировать]

Domenico Scarlatti - Sacred Music: Stabat Mater; Missa Breve; Te Deum; Iste Confessor - The Sixteen, Harry Christophers
Жанр: Classical
Страна-производитель диска: UK
Год издания диска: 2001
Издатель (лейбл): Coro
Номер по каталогу: COR16003
Дата записи: 1997
Аудиокодек: FLAC
Тип рипа: image+.cue
Битрейт аудио: lossless
Продолжительность: 59:34
Источник: собственный рип
Наличие сканов в содержимом раздачи: да
Треклист:
Domenico Scarlatti
[1] Te Deum
[2] Iste Confessor
[3]-[8] Missa Breve "La stella"
[9] Stabat mater
Исполнители:
The Sixteen
Harry Christophers

Лог создания рипа

Exact Audio Copy V1.0 beta 3 from 29. August 2011
EAC extraction logfile from 22. November 2014, 2:17
The Sixteen, Harry Christophers / Domenico Scarlatti - Iste Confessor
Used drive : HL-DT-STDVDRAM GU70N Adapter: 0 ID: 0
Read mode : SecureUtilize accurate stream : YesDefeat audio cache : YesMake use of C2 pointers : No
Read offset correction : 48Overread into Lead-In and Lead-Out : NoFill up missing offset samples with silence : YesDelete leading and trailing silent blocks : NoNull samples used in CRC calculations : YesUsed interface : Native Win32 interface for Win NT & 2000
Used output format : User Defined EncoderSelected bitrate : 128 kBit/sQuality : HighAdd ID3 tag : NoCommand line compressor : C:\Program Files (x86)\Exact Audio Copy\Flac\flac.exeAdditional command line options : -V -8 -T "Date=%year%" -T "Genre=%genre%" %source%
TOC of the extracted CD
Track | Start | Length | Start sector | End sector --------------------------------------------------------- 1 | 0:00.42 | 5:42.70 | 42 | 25761 2 | 5:43.37 | 3:24.00 | 25762 | 41061 3 | 9:07.37 | 3:47.40 | 41062 | 58126 4 | 12:55.02 | 5:24.13 | 58127 | 82439 5 | 18:19.15 | 7:45.37 | 82440 | 117351 6 | 26:04.52 | 1:43.28 | 117352 | 125104 7 | 27:48.05 | 4:10.55 | 125105 | 143909 8 | 31:58.60 | 1:49.07 | 143910 | 152091 9 | 33:47.67 | 25:45.15 | 152092 | 267981
Range status and errors
Selected range
Filename C:\temp\Domenico Scarlatti - Iste Confessor - The Sixteen, Christophers\Domenico Scarlatti - Iste Confessor.wav
Peak level 87.9 % Extraction speed 5.1 X Range quality 100.0 % Test CRC A41D3163 Copy CRC A41D3163 Copy OK
No errors occurred
AccurateRip summary
Track 1 accurately ripped (confidence 2) [8006A040] (AR v2)Track 2 accurately ripped (confidence 2) [797CF0CA] (AR v2)Track 3 accurately ripped (confidence 2) [C84392FA] (AR v2)Track 4 accurately ripped (confidence 2) [269F4C25] (AR v2)Track 5 accurately ripped (confidence 2) [7998BC43] (AR v2)Track 6 accurately ripped (confidence 2) [39E023D1] (AR v2)Track 7 accurately ripped (confidence 2) [964B1AD0] (AR v2)Track 8 accurately ripped (confidence 2) [6EEF4A96] (AR v2)Track 9 accurately ripped (confidence 2) [E2BB250B] (AR v2)
All tracks accurately ripped
End of status report
==== Log checksum EE2E872D888BEB69C6D15FE36E9A487621FFB0F427657BD0626E3F3FFD13EA0D ====
[teatrix.ru].t12225.torrent 
Торрент: Зарегистрирован [ 2015-12-16 01:05 ] · 663710240E781BCFEA0F36AE0B945DA431D9BF85

Скачать .torrent

Скачать

36 KB

Статус: проверено
Скачан: 0 раз
Размер: 223 MB
terms.php



Быстрый ответ

Имя:

      
Для отправки сообщений необходимо включить JavaScript
Показать сообщения:    

Текущее время: 08-Дек 19:08

Часовой пояс: UTC + 3


Вы можете начинать темы
Вы можете отвечать на сообщения
Вы не можете редактировать свои сообщения
Вы не можете удалять свои сообщения
Вы не можете голосовать в опросах
Вы не можете прикреплять файлы к сообщениям
Вы можете скачивать файлы