Синатра: Все или ничего / Sinatra: All or Nothing at All (Алекс Гибни / Alex Gibney) [2015, биография, музыка, HDRip] MVO (1 канал) + Eng


Статистика раздачи [Обновить пиров]
Размер:  4.37 GB   |    Зарегистрирован:  11 месяцев 22 дня   |    Скачан:  0 раз

Полного источника не было: Никогда

Личеров:  2  [  0 KB/s  ]   Подробная статистика пиров
 
   
 
 
 

[Цитировать]

Синатра: Все или ничего / Sinatra: All or Nothing at All
Дата/Год выпуска: 2015
Страна: -
Жанр: биография, музыка, документальный
Продолжительность: 01:58:18+02:06:55
Перевод: Профессиональный (многоголосый закадровый) компания "AB-Video" по заказу 1 канала
Русские субтитры: нет
Оригинальная аудиодорожка: английский
Режиссер: Алекс Гибни / Alex Gibney
Телеканал: 1 канал
Описание: Подробнейшее исследование жизни и карьеры легендарного американского исполнителя. История жизни, рассказанная его собственными словами в многочисленных интервью и дополненная комментариями близких Синатре людей «Синатра: Все или ничего» — подробнейшее исследование жизни и карьеры легендарного американского исполнителя. История жизни, рассказанная его собственными словами в многочисленных интервью и дополненная комментариями близких Синатре людей. Фильм буквально соткан из музыки и картин из жизни Синатры вместе с редкими кадрами из его знаменитого «Прощального концерта», прошедшего в 1971 году в Лос-Анджелесе. Сюжет картины строится на песнях певца, выбранных им самим для того самого выступления.
Сэмпл: http://multi-up.com/1079411
качество: HDRip
формат: AVI
Видео: MPEG4, XviD, 720x400 (16:9), 23.976 fps, 1 992 Kbps (0.289 bit/pixel)
Аудио: AC-3, 48.0 KHz, 2 ch, 192 Kbps, CBR - русский
Аудио 2: AC-3, 48.0 KHz, 6 ch, 448 Kbps, CBR - английский

MediaInfo

ОбщееПолное имя : N:\МОИ РАЗДАЧИ\Синатра. Все или ничего 1с..aviФормат : AVIФормат/Информация : Audio Video InterleaveПрофиль формата : OpenDMLРазмер файла : 2,19 ГбайтПродолжительность : 1 ч. 58 м.Общий поток : 2650 Кбит/секНазвание фильма : Синатра: Все или ничего / Sinatra: All or Nothing at All (2015)Программа кодирования : VirtualDubMod 1.5.10.2 (build 2540/release)Библиотека кодирования : VirtualDubMod build 2540/releaseАвторское право : miha2154
ВидеоИдентификатор : 0Формат : MPEG-4 VisualПрофиль формата : Advanced Simple@L5Параметр BVOP формата : 1Параметр QPel формата : НетПараметр GMC формата : Без точки переходаПараметр матрицы формата : ВыборочнаяИдентификатор кодека : XVIDИдентификатор кодека/Подсказка : XviDПродолжительность : 1 ч. 58 м.Битрейт : 1992 Кбит/секШирина : 720 пикселейВысота : 400 пикселейСоотношение сторон : 16:9Частота кадров : 23,976 кадра/секЦветовое пространство : YUVСубдискретизация насыщенности : 4:2:0Битовая глубина : 8 битТип развёртки : ПрогрессивнаяМетод сжатия : С потерямиБит/(Пиксели*Кадры) : 0.289Размер потока : 1,65 Гбайт (75%)Библиотека кодирования : XviD 65
Аудио #1Идентификатор : 1Формат : AC-3Формат/Информация : Audio Coding 3Расширение режима : CM (complete main)Параметр Endianness формата : BigИдентификатор кодека : 2000Продолжительность : 1 ч. 58 м.Вид битрейта : ПостоянныйБитрейт : 192 Кбит/секКаналы : 2 каналаРасположение каналов : Front: L RЧастота : 48,0 КГцМетод сжатия : С потерямиРазмер потока : 162 Мбайт (7%)Выравнивание : Разделение по промежуткамПродолжительность промежутка : 42 мс. (1,00 видеокадр)Время предзагрузки промежутка : 500 мс.Заголовок : Профессиональный (многоголосый закадровый) 1 канал
Аудио #2Идентификатор : 2Формат : AC-3Формат/Информация : Audio Coding 3Расширение режима : CM (complete main)Параметр Endianness формата : BigИдентификатор кодека : 2000Продолжительность : 1 ч. 58 м.Вид битрейта : ПостоянныйБитрейт : 448 Кбит/секКаналы : 6 каналовРасположение каналов : Front: L C R, Side: L R, LFEЧастота : 48,0 КГцМетод сжатия : С потерямиРазмер потока : 379 Мбайт (17%)Выравнивание : Разделение по промежуткамПродолжительность промежутка : 42 мс. (1,00 видеокадр)Время предзагрузки промежутка : 500 мс.Заголовок : Английский

Скриншоты


[teatrix.ru].t12226.torrent 
Торрент: Зарегистрирован [ 2015-12-16 01:05 ] · 5DE3FB992D3AA1D19052C3842DE841742BB14500

Скачать .torrent

Скачать

22 KB

Статус: проверено
Скачан: 0 раз
Размер: 4.37 GB
terms.php



Быстрый ответ

Имя:

      
Для отправки сообщений необходимо включить JavaScript
Показать сообщения:    

Текущее время: 07-Дек 17:24

Часовой пояс: UTC + 3


Вы можете начинать темы
Вы можете отвечать на сообщения
Вы не можете редактировать свои сообщения
Вы не можете удалять свои сообщения
Вы не можете голосовать в опросах
Вы не можете прикреплять файлы к сообщениям
Вы можете скачивать файлы