(Classical) John Ward - Fantasies & Verse Anthems - Phantasm, Choir of Magdalen College, Oxford, Daniel Hyde - 2014, FLAC (image+.cue) lossless


 

[Цитировать]

John Ward - Fantasies & Verse Anthems - Phantasm, Choir of Magdalen College, Oxford, Daniel Hyde
Жанр: Classical
Страна-производитель диска: UK
Год издания диска: 2014
Издатель (лейбл): Linn Records
Номер по каталогу: CKD 427
Дата записи: 2013
Аудиокодек: FLAC
Тип рипа: image+.cue
Битрейт аудио: lossless
Продолжительность: 59:47
Источник: собственный рип
Наличие сканов в содержимом раздачи: да
Треклист:
John Ward (1571-1638)
[1] Fantasia 2 a4 (VDGS 22)
[2] Praise the Lord, O my soul
[3] Fantasia 5 a4 (VDGS 25)
[4] Mount up, my soul
[5] Fantasia 1 a4 (VDGS 21)
[6] Down, caitiff wretch (Part 1)
[7] Prayer is an endless chain (Part 2)
[8] Fantasia 3 a4 (VDGS 23)
[9] How long wilt thou forget me, O Lord
[10] Fantasia 4 a4 (VDGS 24)
[11] Let God arise
[12] Fantasia 6 a4 (VDGS 26)
[13] This is a joyful, happy holy day
Исполнители:
Phantasm
Choir of Magdalen College, Oxford directed by Daniel Hyde

Лог создания рипа

Exact Audio Copy V1.0 beta 3 from 29. August 2011
EAC extraction logfile from 17. April 2015, 1:40
Phantasm & Choir of Magdalen College, Oxford / Ward - Fantasies & Verse Anthems
Used drive : HL-DT-STDVDRAM GU70N Adapter: 0 ID: 0
Read mode : SecureUtilize accurate stream : YesDefeat audio cache : YesMake use of C2 pointers : No
Read offset correction : 48Overread into Lead-In and Lead-Out : NoFill up missing offset samples with silence : YesDelete leading and trailing silent blocks : NoNull samples used in CRC calculations : YesUsed interface : Native Win32 interface for Win NT & 2000
Used output format : User Defined EncoderSelected bitrate : 128 kBit/sQuality : HighAdd ID3 tag : NoCommand line compressor : C:\Program Files (x86)\Exact Audio Copy\Flac\flac.exeAdditional command line options : -V -8 -T "Date=%year%" -T "Genre=%genre%" %source%
TOC of the extracted CD
Track | Start | Length | Start sector | End sector --------------------------------------------------------- 1 | 0:00.00 | 2:12.55 | 0 | 9954 2 | 2:12.55 | 8:17.36 | 9955 | 47265 3 | 10:30.16 | 2:49.18 | 47266 | 59958 4 | 13:19.34 | 7:03.60 | 59959 | 91743 5 | 20:23.19 | 2:53.00 | 91744 | 104718 6 | 23:16.19 | 5:39.56 | 104719 | 130199 7 | 28:56.00 | 5:26.65 | 130200 | 154714 8 | 34:22.65 | 2:25.31 | 154715 | 165620 9 | 36:48.21 | 4:50.65 | 165621 | 187435 10 | 41:39.11 | 3:11.11 | 187436 | 201771 11 | 44:50.22 | 6:12.39 | 201772 | 229710 12 | 51:02.61 | 2:53.24 | 229711 | 242709 13 | 53:56.10 | 5:50.14 | 242710 | 268973
Range status and errors
Selected range
Filename C:\temp\Ward - Fantasies & Verse Anthems - Phantasm\Ward - Fantasies & Verse Anthems.wav
Peak level 91.1 % Extraction speed 2.2 X Range quality 100.0 % Test CRC 5E61E025 Copy CRC 5E61E025 Copy OK
No errors occurred
AccurateRip summary
Track 1 not present in databaseTrack 2 not present in databaseTrack 3 not present in databaseTrack 4 not present in databaseTrack 5 not present in databaseTrack 6 not present in databaseTrack 7 not present in databaseTrack 8 not present in databaseTrack 9 not present in databaseTrack 10 not present in databaseTrack 11 not present in databaseTrack 12 not present in databaseTrack 13 not present in database
None of the tracks are present in the AccurateRip database
End of status report
==== Log checksum 79AFF8434161FC8F2708CB740797A4ACD133CE950E018278B1D29202524929E3 ====



Показать сообщения:    

Текущее время: 03-Дек 20:46

Часовой пояс: UTC + 3


Вы не можете начинать темы
Вы не можете отвечать на сообщения
Вы не можете редактировать свои сообщения
Вы не можете удалять свои сообщения
Вы не можете голосовать в опросах
Вы не можете прикреплять файлы к сообщениям
Вы не можете скачивать файлы