(Score) Турист / The Tourist (by James Newton Howard) - 2010, FLAC (tracks+.cue), lossless


Статистика раздачи [Обновить пиров]
Размер:  344 MB   |    Зарегистрирован:  11 месяцев 19 дней   |    Скачан:  0 раз

Полного источника не было: Никогда

Личеров:  2  [  0 KB/s  ]   Подробная статистика пиров
 
   
 
 
 

[Цитировать]

Турист / The Tourist-Жанр: Score
Композитор: James Newton Howard
Год выпуска диска: 2010
Страна-производитель диска: Germany
Издатель (лейбл): Colosseum
Номер по каталогу: VSD (CVS) 7075.2-Аудио кодек: FLAC (*.flac)
Тип рипа: tracks+.cue
Битрейт аудио: lossless
Продолжительность: 01:03:55
Источник: собственный рип
Наличие сканов в содержимом раздачи: да-Ссылки: Кинопоиск | IMDB | Wikipedia | SoundtrackCollector

Треклист

01. Tracking Elise [0:01:35.12]
02. Burned Letter [0:02:21.49]
03. Paranoid Math Teacher [0:03:33.42]
04. Arrival At Venice [0:03:06.46]
05. Elise Offers A Ride [0:01:52.64]
06. A Very Nice Kiss [0:02:04.33]
07. Bedroom Dreams [0:02:58.69]
08. Piecing It Together [0:03:11.08]
09. Rooftop Run [0:05:18.01]
10. Chase Through The Canals [0:05:45.18]
11. Because I Kissed You [0:03:34.80]
12. A Very Nice Hotel [0:02:27.02]
13. Arriving At The Ball [0:02:04.90]
14. Your Choice In Men [0:02:04.49]
15. Sudden Departure [0:02:03.42]
16. The Infinite Price [0:07:30.30]
17. The Janus Safe [0:03:01.74]
18. Rain Of Bullets [0:01:29.84]
19. Aftermath [0:00:52.26]
20. Elise and Alexander [0:02:41.92]
21. Personal Cheque [0:01:57.57]
22. Dance In F - composed by Gabriel Yared [0:02:42.17]

Лог EAC создания рипа

Exact Audio Copy V0.99 prebeta 5 from 4. May 2009
EAC extraction logfile from 5. January 2011, 14:57
James Newton Howard / The Tourist
Used drive : TSSTcorpCD/DVDW SH-S182M Adapter: 0 ID: 0
Read mode : SecureUtilize accurate stream : YesDefeat audio cache : YesMake use of C2 pointers : No
Read offset correction : 6Overread into Lead-In and Lead-Out : NoFill up missing offset samples with silence : YesDelete leading and trailing silent blocks : NoNull samples used in CRC calculations : YesUsed interface : Installed external ASPI interfaceGap handling : Appended to previous track
Used output format : User Defined EncoderSelected bitrate : 768 kBit/sQuality : HighAdd ID3 tag : NoCommand line compressor : C:\Program Files\Exact Audio Copy\FLAC\FLAC.EXEAdditional command line options : -V -8 -T "artist=%a" -T "title=%t" -T "album=%g" -T "date=%y" -T "tracknumber=%n" -T "genre=%m" %s
TOC of the extracted CD
Track | Start | Length | Start sector | End sector --------------------------------------------------------- 1 | 0:00.16 | 1:35.09 | 16 | 7149 2 | 1:35.25 | 2:21.37 | 7150 | 17761 3 | 3:56.62 | 3:33.32 | 17762 | 33768 4 | 7:30.19 | 3:06.35 | 33769 | 47753 5 | 10:36.54 | 1:52.48 | 47754 | 56201 6 | 12:29.27 | 2:04.25 | 56202 | 65526 7 | 14:33.52 | 2:58.52 | 65527 | 78928 8 | 17:32.29 | 3:11.06 | 78929 | 93259 9 | 20:43.35 | 5:18.01 | 93260 | 117110 10 | 26:01.36 | 5:45.14 | 117111 | 142999 11 | 31:46.50 | 3:34.60 | 143000 | 159109 12 | 35:21.35 | 2:27.02 | 159110 | 170136 13 | 37:48.37 | 2:04.68 | 170137 | 179504 14 | 39:53.30 | 2:04.37 | 179505 | 188841 15 | 41:57.67 | 2:03.32 | 188842 | 198098 16 | 44:01.24 | 7:30.23 | 198099 | 231871 17 | 51:31.47 | 3:01.56 | 231872 | 245502 18 | 54:33.28 | 1:29.63 | 245503 | 252240 19 | 56:03.16 | 0:52.20 | 252241 | 256160 20 | 56:55.36 | 2:41.69 | 256161 | 268304 21 | 59:37.30 | 1:57.43 | 268305 | 277122 22 | 61:34.73 | 2:42.13 | 277123 | 289285
Track 1
Filename C:\Music\01 - Tracking Elise.wav
Pre-gap length 0:00:02.21
Peak level 94.4 % Track quality 100.0 % Test CRC 05AD8096 Copy CRC 05AD8096 Track not present in AccurateRip database Copy OK
Track 2
Filename C:\Music\02 - Burned Letter.wav
Pre-gap length 0:00:01.00
Peak level 94.4 % Track quality 100.0 % Test CRC 285CA82D Copy CRC 285CA82D Track not present in AccurateRip database Copy OK
Track 3
Filename C:\Music\03 - Paranoid Math Teacher.wav
Pre-gap length 0:00:01.00
Peak level 94.4 % Track quality 100.0 % Test CRC 26A4E537 Copy CRC 26A4E537 Track not present in AccurateRip database Copy OK
Track 4
Filename C:\Music\04 - Arrival At Venice.wav
Pre-gap length 0:00:01.00
Peak level 94.4 % Track quality 100.0 % Test CRC 3F642D06 Copy CRC 3F642D06 Track not present in AccurateRip database Copy OK
Track 5
Filename C:\Music\05 - Elise Offers A Ride.wav
Pre-gap length 0:00:01.00
Peak level 94.4 % Track quality 100.0 % Test CRC 77F425BA Copy CRC 77F425BA Track not present in AccurateRip database Copy OK
Track 6
Filename C:\Music\06 - A Very Nice Kiss.wav
Pre-gap length 0:00:01.00
Peak level 100.0 % Track quality 100.0 % Test CRC 8F7199B6 Copy CRC 8F7199B6 Track not present in AccurateRip database Copy OK
Track 7
Filename C:\Music\07 - Bedroom Dreams.wav
Pre-gap length 0:00:01.00
Peak level 94.4 % Track quality 100.0 % Test CRC 4C9F96E1 Copy CRC 4C9F96E1 Track not present in AccurateRip database Copy OK
Track 8
Filename C:\Music\08 - Piecing It Together.wav
Pre-gap length 0:00:01.00
Peak level 99.1 % Track quality 100.0 % Test CRC 3BCFEC2A Copy CRC 3BCFEC2A Track not present in AccurateRip database Copy OK
Track 9
Filename C:\Music\09 - Rooftop Run.wav
Pre-gap length 0:00:01.00
Peak level 94.4 % Track quality 100.0 % Test CRC 3292894F Copy CRC 3292894F Track not present in AccurateRip database Copy OK
Track 10
Filename C:\Music\10 - Chase Through The Canals.wav
Pre-gap length 0:00:01.00
Peak level 94.4 % Track quality 100.0 % Test CRC 0CA0DB62 Copy CRC 0CA0DB62 Track not present in AccurateRip database Copy OK
Track 11
Filename C:\Music\11 - Because I Kissed You.wav
Pre-gap length 0:00:00.98
Peak level 97.8 % Track quality 100.0 % Test CRC D2868EBA Copy CRC D2868EBA Track not present in AccurateRip database Copy OK
Track 12
Filename C:\Music\12 - A Very Nice Hotel.wav
Pre-gap length 0:00:01.00
Peak level 69.6 % Track quality 100.0 % Test CRC E6B072B4 Copy CRC E6B072B4 Track not present in AccurateRip database Copy OK
Track 13
Filename C:\Music\13 - Arriving At The Ball.wav
Pre-gap length 0:00:01.00
Peak level 78.3 % Track quality 100.0 % Test CRC 5D3BC309 Copy CRC 5D3BC309 Track not present in AccurateRip database Copy OK
Track 14
Filename C:\Music\14 - Your Choice In Men.wav
Pre-gap length 0:00:01.00
Peak level 72.5 % Track quality 100.0 % Test CRC C3785F68 Copy CRC C3785F68 Track not present in AccurateRip database Copy OK
Track 15
Filename C:\Music\15 - Sudden Departure.wav
Pre-gap length 0:00:01.00
Peak level 94.4 % Track quality 100.0 % Test CRC 47321144 Copy CRC 47321144 Track not present in AccurateRip database Copy OK
Track 16
Filename C:\Music\16 - The Infinite Price.wav
Pre-gap length 0:00:01.00
Peak level 94.7 % Track quality 100.0 % Test CRC E5BAE705 Copy CRC E5BAE705 Track not present in AccurateRip database Copy OK
Track 17
Filename C:\Music\17 - The Janus Safe.wav
Peak level 100.0 % Track quality 100.0 % Test CRC 858C4E30 Copy CRC 858C4E30 Track not present in AccurateRip database Copy OK
Track 18
Filename C:\Music\18 - Rain Of Bullets.wav
Pre-gap length 0:00:00.98
Peak level 94.4 % Track quality 100.0 % Test CRC 854315E1 Copy CRC 854315E1 Track not present in AccurateRip database Copy OK
Track 19
Filename C:\Music\19 - Aftermath.wav
Pre-gap length 0:00:01.00
Peak level 41.5 % Track quality 100.0 % Test CRC 412C7F6E Copy CRC 412C7F6E Track not present in AccurateRip database Copy OK
Track 20
Filename C:\Music\20 - Elise and Alexander.wav
Pre-gap length 0:00:01.00
Peak level 92.9 % Track quality 100.0 % Test CRC 16AC7C0C Copy CRC 16AC7C0C Track not present in AccurateRip database Copy OK
Track 21
Filename C:\Music\21 - Personal Cheque.wav
Pre-gap length 0:00:00.98
Peak level 94.4 % Track quality 99.9 % Test CRC 54001AB3 Copy CRC 54001AB3 Track not present in AccurateRip database Copy OK
Track 22
Filename C:\Music\22 - Gabriel Yared , Dance In F.wav
Pre-gap length 0:00:01.00
Peak level 94.4 % Track quality 100.0 % Test CRC 02C6B95E Copy CRC 02C6B95E Track not present in AccurateRip database Copy OK
None of the tracks are present in the AccurateRip database
No errors occurred
End of status report

Содержание индексной карты (.CUE)

REM GENRE SoundtrackREM DATE 2010REM DISCID 4A0F1116REM COMMENT "ExactAudioCopy v0.99pb5"PERFORMER "James Newton Howard"TITLE "The Tourist"FILE "01 - Tracking Elise.wav" WAVE TRACK 01 AUDIO TITLE "Tracking Elise" PERFORMER "James Newton Howard" PREGAP 00:00:16 INDEX 01 00:00:00 TRACK 02 AUDIO TITLE "Burned Letter" PERFORMER "James Newton Howard" INDEX 00 01:34:09FILE "02 - Burned Letter.wav" WAVE INDEX 01 00:00:00 TRACK 03 AUDIO TITLE "Paranoid Math Teacher" PERFORMER "James Newton Howard" INDEX 00 02:20:37FILE "03 - Paranoid Math Teacher.wav" WAVE INDEX 01 00:00:00 TRACK 04 AUDIO TITLE "Arrival At Venice" PERFORMER "James Newton Howard" INDEX 00 03:32:32FILE "04 - Arrival At Venice.wav" WAVE INDEX 01 00:00:00 TRACK 05 AUDIO TITLE "Elise Offers A Ride" PERFORMER "James Newton Howard" INDEX 00 03:05:35FILE "05 - Elise Offers A Ride.wav" WAVE INDEX 01 00:00:00 TRACK 06 AUDIO TITLE "A Very Nice Kiss" PERFORMER "James Newton Howard" INDEX 00 01:51:48FILE "06 - A Very Nice Kiss.wav" WAVE INDEX 01 00:00:00 TRACK 07 AUDIO TITLE "Bedroom Dreams" PERFORMER "James Newton Howard" INDEX 00 02:03:25FILE "07 - Bedroom Dreams.wav" WAVE INDEX 01 00:00:00 TRACK 08 AUDIO TITLE "Piecing It Together" PERFORMER "James Newton Howard" INDEX 00 02:57:52FILE "08 - Piecing It Together.wav" WAVE INDEX 01 00:00:00 TRACK 09 AUDIO TITLE "Rooftop Run" PERFORMER "James Newton Howard" INDEX 00 03:10:06FILE "09 - Rooftop Run.wav" WAVE INDEX 01 00:00:00 TRACK 10 AUDIO TITLE "Chase Through The Canals" PERFORMER "James Newton Howard" INDEX 00 05:17:01FILE "10 - Chase Through The Canals.wav" WAVE INDEX 01 00:00:00 TRACK 11 AUDIO TITLE "Because I Kissed You" PERFORMER "James Newton Howard" INDEX 00 05:44:15FILE "11 - Because I Kissed You.wav" WAVE INDEX 01 00:00:00 TRACK 12 AUDIO TITLE "A Very Nice Hotel" PERFORMER "James Newton Howard" INDEX 00 03:33:60FILE "12 - A Very Nice Hotel.wav" WAVE INDEX 01 00:00:00 TRACK 13 AUDIO TITLE "Arriving At The Ball" PERFORMER "James Newton Howard" INDEX 00 02:26:02FILE "13 - Arriving At The Ball.wav" WAVE INDEX 01 00:00:00 TRACK 14 AUDIO TITLE "Your Choice In Men" PERFORMER "James Newton Howard" INDEX 00 02:03:68FILE "14 - Your Choice In Men.wav" WAVE INDEX 01 00:00:00 TRACK 15 AUDIO TITLE "Sudden Departure" PERFORMER "James Newton Howard" INDEX 00 02:03:37FILE "15 - Sudden Departure.wav" WAVE INDEX 01 00:00:00 TRACK 16 AUDIO TITLE "The Infinite Price" PERFORMER "James Newton Howard" INDEX 00 02:02:32FILE "16 - The Infinite Price.wav" WAVE INDEX 01 00:00:00FILE "17 - The Janus Safe.wav" WAVE TRACK 17 AUDIO TITLE "The Janus Safe" PERFORMER "James Newton Howard" INDEX 01 00:00:00 TRACK 18 AUDIO TITLE "Rain Of Bullets" PERFORMER "James Newton Howard" INDEX 00 03:00:57FILE "18 - Rain Of Bullets.wav" WAVE INDEX 01 00:00:00 TRACK 19 AUDIO TITLE "Aftermath" PERFORMER "James Newton Howard" INDEX 00 01:28:63FILE "19 - Aftermath.wav" WAVE INDEX 01 00:00:00 TRACK 20 AUDIO TITLE "Elise and Alexander" PERFORMER "James Newton Howard" INDEX 00 00:51:20FILE "20 - Elise and Alexander.wav" WAVE INDEX 01 00:00:00 TRACK 21 AUDIO TITLE "Personal Cheque" PERFORMER "James Newton Howard" INDEX 00 02:40:70FILE "21 - Personal Cheque.wav" WAVE INDEX 01 00:00:00 TRACK 22 AUDIO TITLE "Gabriel Yared / Dance In F" PERFORMER "James Newton Howard" INDEX 00 01:56:43FILE "22 - Gabriel Yared , Dance In F.wav" WAVE INDEX 01 00:00:00

Лог-файл CUETools

[CUETools log; Date: 14.12.2015 22:58:08; Version: 2.1.5]Pregap length 00:00:16.[CTDB TOCID: WdXI0rI9wQKfSKhdTcw_8smhaq8-] found.Track | CTDB Status 1 | (2/2) Accurately ripped 2 | (2/2) Accurately ripped 3 | (2/2) Accurately ripped 4 | (2/2) Accurately ripped 5 | (2/2) Accurately ripped 6 | (2/2) Accurately ripped 7 | (2/2) Accurately ripped 8 | (2/2) Accurately ripped 9 | (2/2) Accurately ripped 10 | (2/2) Accurately ripped 11 | (2/2) Accurately ripped 12 | (2/2) Accurately ripped 13 | (2/2) Accurately ripped 14 | (2/2) Accurately ripped 15 | (2/2) Accurately ripped 16 | (2/2) Accurately ripped 17 | (2/2) Accurately ripped 18 | (2/2) Accurately ripped 19 | (2/2) Accurately ripped 20 | (2/2) Accurately ripped 21 | (2/2) Accurately ripped 22 | (2/2) Accurately ripped[AccurateRip ID: 00338618-03436b1e-4a0f1116] found.Track [ CRC | V2 ] Status 01 [25786d6c|663a9fff] (03+00/10) Accurately ripped 02 [e27084c1|2217a441] (03+00/10) Accurately ripped 03 [f6465ebf|db96371e] (03+00/10) Accurately ripped 04 [11b9357b|cfbbc635] (03+00/10) Accurately ripped 05 [b93e96ca|1cb4dcb7] (03+00/10) Accurately ripped 06 [e0f0849e|4306d2a0] (03+00/10) Accurately ripped 07 [eed28644|cf4a96db] (03+00/10) Accurately ripped 08 [bf1e3dcd|c6a666f8] (03+00/10) Accurately ripped 09 [79a2c256|9e379b84] (03+00/10) Accurately ripped 10 [dad7cd17|72d512ae] (03+00/10) Accurately ripped 11 [5dbdac34|b2292e32] (03+00/10) Accurately ripped 12 [95ed729b|98b3e3bd] (03+00/10) Accurately ripped 13 [b231e13b|da4ecdc5] (03+00/10) Accurately ripped 14 [ef1ee337|4ada3089] (03+00/10) Accurately ripped 15 [74de82e3|0de3f7ee] (03+00/10) Accurately ripped 16 [905a07f1|be1a5db2] (03+00/10) Accurately ripped 17 [6b229a51|6e715776] (03+00/10) Accurately ripped 18 [3cc8feb1|8905d388] (03+00/10) Accurately ripped 19 [8f6f1c01|76d903fa] (03+00/10) Accurately ripped 20 [d15915ed|f2df7f46] (03+00/10) Accurately ripped 21 [b606a3c6|179d86d0] (03+00/10) Accurately ripped 22 [0ab7474d|2beb904e] (03+00/10) Accurately rippedOffsetted by -12: 01 [535050ef] (02/10) Accurately ripped 02 [6df15dbc] (02/10) Accurately ripped 03 [9bdf1034] (02/10) Accurately ripped 04 [b0b93bcb] (02/10) Accurately ripped 05 [f4b3bede] (02/10) Accurately ripped 06 [296f5e7b] (02/10) Accurately ripped 07 [3e245275] (02/10) Accurately ripped 08 [4687b485] (02/10) Accurately ripped 09 [4d651dbd] (02/10) Accurately ripped 10 [43283a34] (02/10) Accurately ripped 11 [47acd81b] (02/10) Accurately ripped 12 [69b1346f] (02/10) Accurately ripped 13 [601f6e90] (02/10) Accurately ripped 14 [ee8362c2] (02/10) Accurately ripped 15 [a69d0642] (02/10) Accurately ripped 16 [43351083] (02/10) Accurately ripped 17 [3c57e00d] (02/10) Accurately ripped 18 [7dc2bb97] (02/10) Accurately ripped 19 [a7e51af6] (02/10) Accurately ripped 20 [e03202a2] (02/10) Accurately ripped 21 [42494a5a] (02/10) Accurately ripped 22 [1f0dece0] (02/10) Accurately ripped
Track Peak [ CRC32 ] [W/O NULL] [ LOG ] -- 100,0 [69D1F4B8] [60C22140] 01 94,4 [05AD8096] [6FC96171] CRC32 02 94,4 [285CA82D] [DF052941] CRC32 03 94,4 [26A4E537] [15ED786C] CRC32 04 94,4 [3F642D06] [DE2E3BF7] CRC32 05 94,4 [77F425BA] [6537EA11] CRC32 06 100,0 [8F7199B6] [CAE4E24D] CRC32 07 94,4 [4C9F96E1] [2D535623] CRC32 08 99,1 [3BCFEC2A] [5A9C3199] CRC32 09 94,4 [3292894F] [D34E0C5B] CRC32 10 94,4 [0CA0DB62] [C9BC16CA] CRC32 11 97,8 [D2868EBA] [02A0E2F5] CRC32 12 69,6 [E6B072B4] [2FBA5FDC] CRC32 13 78,3 [5D3BC309] [D26845A8] CRC32 14 72,5 [C3785F68] [EE48B0EF] CRC32 15 94,4 [47321144] [11448E66] CRC32 16 94,7 [E5BAE705] [A91F781F] CRC32 17 100,0 [858C4E30] [70C5CD81] CRC32 18 94,4 [854315E1] [1BDC063A] CRC32 19 41,5 [412C7F6E] [31A85CB2] CRC32 20 92,9 [16AC7C0C] [7EBC2536] CRC32 21 94,4 [54001AB3] [0465CFE0] CRC32 22 94,4 [02C6B95E] [1C1ADE7A] CRC32
[teatrix.ru].t12232.torrent 
Торрент: Зарегистрирован [ 2015-12-16 01:05 ] · B0B1E1A90D0096F2B60919C5F5CDA9766D3077B5

Скачать .torrent

Скачать

16 KB

Статус: проверено
Скачан: 0 раз
Размер: 344 MB
terms.php



Быстрый ответ

Имя:

      
Для отправки сообщений необходимо включить JavaScript
Показать сообщения:    

Текущее время: 04-Дек 23:25

Часовой пояс: UTC + 3


Вы можете начинать темы
Вы можете отвечать на сообщения
Вы не можете редактировать свои сообщения
Вы не можете удалять свои сообщения
Вы не можете голосовать в опросах
Вы не можете прикреплять файлы к сообщениям
Вы можете скачивать файлы