[TR24][OF] Ysaye: Sonatas for Solo Violin (Alina Ibragimova) - 2015 (Classical/Violin)


Статистика раздачи [Обновить пиров]
Размер:  1.22 GB   |    Зарегистрирован:  11 месяцев 24 дня   |    Скачан:  0 раз
Сидов:  1  [  0 KB/s  ]   Личеров:  2  [  0 KB/s  ]   Подробная статистика пиров
 
   
 
 
 

[Цитировать]

Alina Ibragimova

Ysaÿe: Sonatas for Solo Violin-Разрядность: 24/96
Формат: WAV (flac.ape.wv)
Контейнер: FLAC (*.flac)
Количество каналов: 2.0
Формат записи/Источник записи: [TR24][OF]
Наличие водяных знаков: Нет
Год издания/переиздания диска: 2015
Жанр: Classical/Violin
Издатель(лейбл): Hyperion Records
Источник: WEB
Продолжительность: 1:07:42
Наличие сканов в содержимом раздачи: Digital booklet-
-
Sonata No. 1 in G minor
01. Grave. Lento assai
02. Fugato. Molto moderato
03. Allegretto poco scherzos
Sonata No. 2 in A minor
05. Obsession. Prelude
06. Malinconia. Poco lento
07. Danse des ombres. Sarabanda
08. Les furies. Allegro furi
Sonata No. 3 in D minor
09. Ballade
Sonata No. 4 in E minor
10. Allemanda. Lento maestoso
11. Sarabande. Quasi lento
12. Finale. Presto ma non tropo
Sonata No. 5 in G major
13. Laurore. Lento assai
14. Danse rustique. Allegro
15. Sonata No. 6 in E major
-Об исполнителе:
Алина Ибрагимова - российская скрипачка, дочь известного контрабасиста Рината Ибрагимова.
Училась в Москве в Музыкальной школе имени Гнесиных. С 1996 г., когда её отец занял пост первого контрабаса в Лондонском симфоническом оркестре, живёт в Великобритании. Училась в Школе Иегуди Менухина у Натальи Боярской, затем в Королевском колледже музыки у Гордана Николича.
Первый альбом Ибрагимовой — все скрипичные сочинения Карла Амадея Хартмана — вышел в 2007 г. Также выпустила первую и на данный момент единственную запись обоих скрипичных концертов Николая Рославца (с Шотландским симфоническим оркестром BBC под управлением Илана Волкова).
В 2009 году удостоена музыкальной премии Classical BRIT Awards в номинации «Лучший молодой исполнитель».
Алина играет на скрипке 1738 года венецианского скрипичного мастера Пьетро Гварнери.
Об альбоме:
"Изаи сделал наброски сонат для скрипки соло за лихорадочные 24 часа летом 1923 года. Это был своего рода ответ на вопрос - почему никто, в течение двух сотен лет, не пытался пройти путём, намеченным Иоганом Себастьяном Бахом. Каждая из шести сонат посвящена и подогнана под стиль игры современных автору скрипачей, и как таковые представляют из себя серьёзный вызов исполнителю. Российский виртуоз Алина Ибрагимова, ранее записавшая сонаты Баха, оказалась вполне достойна этой выдающейся родословной."

Dynamic Range Meter

foobar2000 1.3.9 / Замер динамического диапазона (DR) 1.1.1Дата отчёта: 2015-12-11 19:05:31
--------------------------------------------------------------------------------Анализ: Alina Ibragimova / Ysaÿe: Sonatas for solo violin--------------------------------------------------------------------------------
DR Пики RMS Продолжительность трека--------------------------------------------------------------------------------DR14 -4.88 дБ -24.63 дБ 5:49 01-Ysaÿe: Sonata for solo violin No 1 in G minor, Op 27 No 1 - 1: Grave: Lento assaiDR14 -1.79 дБ -21.85 дБ 4:43 02-Ysaÿe: Sonata for solo violin No 1 in G minor, Op 27 No 1 - 2: Fugato: Molto moderatoDR15 -7.69 дБ -28.94 дБ 4:39 03-Ysaÿe: Sonata for solo violin No 1 in G minor, Op 27 No 1 - 3: Allegretto poco scherzoso: AmabileDR13 -2.91 дБ -20.98 дБ 2:59 04-Ysaÿe: Sonata for solo violin No 1 in G minor, Op 27 No 1 - 4: Finale con brio: Allegro fermoDR12 -3.67 дБ -22.95 дБ 2:22 05-Ysaÿe: Sonata for solo violin No 2 in A minor, Op 27 No 2 - 1: Obsession 'Prélude': Poco vivaceDR13 -9.75 дБ -30.40 дБ 3:06 06-Ysaÿe: Sonata for solo violin No 2 in A minor, Op 27 No 2 - 2: Malinconia: Poco lentoDR13 -6.49 дБ -25.56 дБ 4:23 07-Ysaÿe: Sonata for solo violin No 2 in A minor, Op 27 No 2 - 3: Danse des ombres 'Sarabande': LentoDR14 -1.48 дБ -20.29 дБ 3:12 08-Ysaÿe: Sonata for solo violin No 2 in A minor, Op 27 No 2 - 4: Les furies: Allegro furiosoDR15 -0.17 дБ -21.56 дБ 7:46 09-Ysaÿe: Sonata for solo violin No 3 in D minor 'Ballade', Op 27 No 3DR13 -3.88 дБ -22.84 дБ 5:17 10-Ysaÿe: Sonata for solo violin No 4 in E minor, Op 27 No 4 - 1: Allemanda: Lento maestosoDR14 -6.90 дБ -29.18 дБ 3:22 11-Ysaÿe: Sonata for solo violin No 4 in E minor, Op 27 No 4 - 2: Sarabande: Quasi lentoDR13 -1.59 дБ -21.04 дБ 2:48 12-Ysaÿe: Sonata for solo violin No 4 in E minor, Op 27 No 4 - 3: Finale: Presto ma non troppoDR13 -4.86 дБ -24.68 дБ 4:31 13-Ysaÿe: Sonata for solo violin No 5 in G major, Op 27 No 5 - 1: L'aurore: Lento assaiDR15 -2.17 дБ -22.03 дБ 5:23 14-Ysaÿe: Sonata for solo violin No 5 in G major, Op 27 No 5 - 2: Danse rustique: Allegro giocoso molto moderato – Moderato amabile – Tempo 1 – Poco più mossoDR14 -1.61 дБ -22.14 дБ 7:23 15-Ysaÿe: Sonata for solo violin No 6 in E major, Op 27 No 6--------------------------------------------------------------------------------
Количество треков: 15Реальные значения DR: DR14
Частота: 96000 ГцКаналов: 2Разрядность: 24Битрейт: 2614 кбит/сКодек: FLAC================================================================================

Скриншот спектра частот

Tracks 6, 11
[teatrix.ru].t12234.torrent 
Торрент: Зарегистрирован [ 2015-12-16 01:05 ] · 9A53FB29D57653C0AF989AA5BB4AFD471A1EECE8

Скачать .torrent

Скачать

14 KB

Статус: проверено
Скачан: 0 раз
Размер: 1.22 GB
terms.php



Быстрый ответ

Имя:

      
Для отправки сообщений необходимо включить JavaScript
Показать сообщения:    

Текущее время: 10-Дек 00:19

Часовой пояс: UTC + 3


Вы можете начинать темы
Вы можете отвечать на сообщения
Вы не можете редактировать свои сообщения
Вы не можете удалять свои сообщения
Вы не можете голосовать в опросах
Вы не можете прикреплять файлы к сообщениям
Вы можете скачивать файлы