[TR24][OF] Ysaye: Six Sonatas For Solo Violin, Op. 27 (Frederieke Saeijs) - 2015 (Classical/Violin)


Статистика раздачи [Обновить пиров]
Размер:  2.52 GB   |    Зарегистрирован:  11 месяцев 18 дней   |    Скачан:  0 раз

Полного источника не было: Никогда

Личеров:  2  [  0 KB/s  ]   Подробная статистика пиров
 
   
 
 
 

[Цитировать]

Frederieke Saeij

Eugène Ysaÿe: Six Sonatas For Solo Violin, Op. 27-Формат записи/Источник записи: [TR24][OF]
Наличие водяных знаков: Нет
Год издания: 2015
Жанр: Classical/Violin
Издатель(лейбл): Linn Records
Источник: WEB
Продолжительность: 01:17:59
Наличие сканов в содержимом раздачи: Нет
Контейнер: FLAC (*.flac)
Тип рипа: tracks
Разрядность: 24/192
Формат: WAV (flac.ape.wv)
Количество каналов: 2.0-
-
Sonata No. 1 in G minor
01. Grave. Lento assai
02. Fugato. Molto moderato
03. Allegretto poco scherzos
Sonata No. 2 in A minor
05. Obsession. Prelude
06. Malinconia. Poco lento
07. Danse des ombres. Sarabanda
08. Les furies. Allegro furi
Sonata No. 3 in D minor
09. Ballade
Sonata No. 4 in E minor
10. Allemanda. Lento maestoso
11. Sarabande. Quasi lento
12. Finale. Presto ma non tropo
Sonata No. 5 in G major
13. Laurore. Lento assai
14. Danse rustique. Allegro
15. Sonata No. 6 in E major
-Об исполнителе:
Фредерике Сайс окончила Гаагскую консерваторию, где её педагогами были Лекс Корф де Гитс, Петер Брунт и Яринг Валта, и музыкальную школу Индианского университета (у Маурисио Фукса). Начиная с 1995 г. становилась лауреатом ряда национальных и международных конкурсов, увенчав эту серию первой премией Международного конкурса имени Жака Тибо в Париже (2005). Помимо сольной карьеры, в 2001—2004 гг. выступала также в составе фортепианного трио «Зулейка». В настоящее время она является профессором кафедры камерной музыки в университете Альфонсо X Эль Сабио в Мадриде.
Фредерике играет на скрипке ‘Ex-Reine-Elisabeth’ Пьетро Гварнери (Венеция, 1725), любезно предоставленной ей Голландским Национальным фондом музыкальных инструментов.-Об альбоме:
В ноябре 2015 года Linn Records выпустил релиз с сольными работами Эжена Изаи, исполненными Федерикой на её любимой скрипке работы Гварнери. Как известно, каждая из шести сонат посвящена одному из известных скрипачей - современников автора: Первая - венгру Йожефу Сигети, Вторая - французу Жаку Тибо, Третья - румыну Джордже Энеску, Четвертая австрийцу Фрицу Крейслеру, Пятая - бельгийцу Матьё Крикбому, Шестая - испанцу Мануэлю Кироге.
Альбом записан в Филармонии Харлема (Нидерланды), 6-8 октября 2014 года.
"...Голландская скрипачка впечатляет не только своей безупречной техникой и силой звука, но и мастерством, с которым она владеет широкой палитрой выразительных средств..."Rheinische Post-

Dynamic Range Meter

foobar2000 1.3.9 / Замер динамического диапазона (DR) 1.1.1Дата отчёта: 2015-12-11 22:10:54
--------------------------------------------------------------------------------Анализ: Frederieke Saeijs / Ysaye: Six Sonatas For Solo Violin, Op. 27--------------------------------------------------------------------------------
DR Пики RMS Продолжительность трека--------------------------------------------------------------------------------DR14 -1.13 дБ -20.89 дБ 5:52 01-Sonata for Solo Violin No. 1 in G Minor, Op. 27: I. Grave. Lento assaiDR14 -0.10 дБ -18.96 дБ 4:56 02-Sonata for Solo Violin No. 1 in G Minor, Op. 27: II. Fugato. Molto moderatoDR14 -3.65 дБ -22.35 дБ 4:49 03-Sonata for Solo Violin No. 1 in G Minor, Op. 27: III. Allegretto poco scherzoso. AmabileDR13 -0.10 дБ -16.50 дБ 3:18 04-Sonata for Solo Violin No. 1 in G Minor, Op. 27: IV. Finale con brio. Allegro fermoDR13 -2.00 дБ -20.33 дБ 2:47 05-Sonata for Solo Violin No. 2 in A Minor, Op. 27: I. Obsession. Prelude. Poco vivaceDR13 -8.68 дБ -28.16 дБ 3:39 06-Sonata for Solo Violin No. 2 in A Minor, Op. 27: II. Malinconia. Poco lentoDR16 -0.10 дБ -21.63 дБ 4:56 07-Sonata for Solo Violin No. 2 in A Minor, Op. 27: III. Danse des ombres. Sarabande. LentoDR13 -0.10 дБ -16.05 дБ 3:28 08-Sonata for Solo Violin No. 2 in A Minor, Op. 27: IV. Les Furies. Allegro furiosoDR14 -0.10 дБ -18.80 дБ 8:47 09-Sonata No. 3 for Solo Violin in D Minor, Op. 27 'Ballade'DR14 -0.10 дБ -19.91 дБ 7:05 10-Sonata for Solo Violin No. 4 in E Minor, Op. 27: I. Allemanda. Lento maestosoDR16 -0.10 дБ -23.10 дБ 3:37 11-Sonata for Solo Violin No. 4 in E Minor, Op. 27: II. Sarabande. Quasi lentoDR14 -0.10 дБ -19.57 дБ 3:55 12-Sonata for Solo Violin No. 4 in E Minor, Op. 27: II. Finale. Presto ma non troppoDR13 -3.14 дБ -22.28 дБ 5:35 13-Sonata for Solo Violin No. 5 in G Major, Op. 27: I. L’Aurore. Lento assaiDR14 -0.10 дБ -18.34 дБ 6:49 14-Sonata for Solo Violin No. 5 in G Major, Op. 27: II. Danse rustiqueDR15 -0.10 дБ -18.34 дБ 8:27 15-Sonata No. 6 for Solo Violin in E Major, Op. 27--------------------------------------------------------------------------------Количество треков: 15Реальные значения DR: DR14
Частота: 192000 ГцКаналов: 2Разрядность: 24Битрейт: 4705 кбит/сКодек: FLAC================================================================================

Скриншот спектра частот

Tracks 5, 11
[teatrix.ru].t12235.torrent 
Торрент: Зарегистрирован [ 2015-12-16 01:05 ] · 1AD29349E8D3EAD7C6FF72E2DD4E6DB0E7AE5E56

Скачать .torrent

Скачать

15 KB

Статус: проверено
Скачан: 0 раз
Размер: 2.52 GB
terms.php



Быстрый ответ

Имя:

      
Для отправки сообщений необходимо включить JavaScript
Показать сообщения:    

Текущее время: 03-Дек 12:41

Часовой пояс: UTC + 3


Вы можете начинать темы
Вы можете отвечать на сообщения
Вы не можете редактировать свои сообщения
Вы не можете удалять свои сообщения
Вы не можете голосовать в опросах
Вы не можете прикреплять файлы к сообщениям
Вы можете скачивать файлы