Рассекая волны / Breaking the Waves (Ларс фон Триер / Lars Von Trier) [1996, Великобритания, Дания, Норвегия, Исландия, Швеция, Франция, Нидерланды, Испания, мелодрама, HDRip-AVC] DVO (ВГТРК) + MVO (DVD/BD)


 

[Цитировать]

Рассекая волны
Breaking the Waves

Страна: Великобритания, Дания, Норвегия, Исландия,
Швеция, Франция, Нидерланды, Испания

Жанр: мелодрама
Год выпуска: 1996
Продолжительность: 02:39:21-Перевод 1: Профессиональный (двухголосый закадровый) ВГТРК
Озвучен студией Фортуна Фильм по заказу Всероссийской государственной телерадиокомпании, в 1997 году
Текст читали: Нина Тобилевич и Андрей Ярославцев
Перевод 2: Профессиональный (многоголосый закадровый) DVD/BD
Cубтитры: нет
Оригинальная аудиодорожка: нет-Режиссер: Ларс фон Триер / Lars Von Trier
В ролях: Эмили Уотсон, Стеллан Скарсгаард, Удо Кир, Катрин Картлидж, Жан-Марк Барр, Адриан Роулинз, Сандра Воу, Миккель Гауп, Рёеф Рагас, Финлэй Уэлш-Описание: Первый фильм Ларса фон Триера, снятый на
английском языке
Первый фильм трилогии «Золотое сердце»

Наивная девушка Бесс Макнейл — живет на западе Шотландии, в коммуне со строгими религиозными традициями. Окружающие, включая её мать, воспринимают девушку как большого ребенка. И когда она выходит замуж за мужчину старше её, жители пуританской деревни ставят брак под сомнение. Между тем Бесс и супруг вовсю наслаждаются друг другом. Более опытный мужчина учит невинную девушку тайным радостям физической любви. А когда супруг получает на работе тяжелую травму и понимает, что не сможет доставлять молодой жене положенную долю удовольствия, он требует, чтобы Бесс нашла себе любовника...-Доп. информация:
О переводе ВГТРК: Перевод на трекере появляется впервые
Звук качеством "не страдает"-Сэмпл: минута21сек-Качество видео: HDRip-AVC (спасибо Rulya74 с рутора)
Формат видео: MKV
Видео: AVC, 960x400, 2,40:1, 23,976 кадра/сек, 1577 Кбит/сек
Аудио 1: AC-3, 48,0 КГц, 192 Кбит/сек, 2 канала (двухголосый ВГТРК)
Аудио 2: AC-3, 48,0 КГц, 192 Кбит/сек, 2 канала (многоголосый DVD/BD)

MediaInfo

Общее
Уникальный идентификатор : 190028631244385978517875344828785844289 (0x8EF62EE0FB509B7CA5A98B0174F56041)
Полное имя : Рассекая волны.1996.BDRip.mkv
Формат : Matroska
Версия формата : Version 2
Размер файла : 2,18 Гбайт
Продолжительность : 2 ч. 39 м.
Общий поток : 1962 Кбит/сек
Название фильма : Рассекая волны(Breaking the Waves).1996.BDRip
Дата кодирования : UTC 2015-12-15 18:14:13
Программа кодирования : mkvmerge v8.3.0 ('Over the Horizon') 32bit
Библиотека кодирования : libebml v1.3.1 + libmatroska v1.4.2
Видео
Идентификатор : 1
Формат : AVC
Формат/Информация : Advanced Video Codec
Профиль формата : High@L4.1
Параметр CABAC формата : Да
Параметр ReFrames формата : 12 кадров
Идентификатор кодека : V_MPEG4/ISO/AVC
Продолжительность : 2 ч. 39 м.
Битрейт : 1577 Кбит/сек
Ширина : 960 пикселей
Высота : 400 пикселей
Соотношение сторон : 2,40:1
Режим частоты кадров : Постоянный
Частота кадров : 23,976 (24000/1001) кадра/сек
Цветовое пространство : YUV
Субдискретизация насыщенности : 4:2:0
Битовая глубина : 8 бит
Тип развёртки : Прогрессивная
Бит/(Пиксели*Кадры) : 0.171
Размер потока : 1,71 Гбайт (78%)
Заголовок : Рассекая волны(Breaking the Waves).1996.BDRip
Библиотека кодирования : x264 core 138 r2358 9e941d1
Настройки программы : cabac=1 / ref=12 / deblock=1:-3:-3 / analyse=0x3:0x113 / me=umh / subme=11 / psy=1 / psy_rd=1.00:0.00 / mixed_ref=1 / me_range=48 / chroma_me=1 / trellis=2 / 8x8dct=1 / cqm=0 / deadzone=21,11 / fast_pskip=0 / chroma_qp_offset=-2 / threads=4 / lookahead_threads=1 / sliced_threads=0 / nr=0 / decimate=1 / interlaced=0 / bluray_compat=0 / constrained_intra=0 / bframes=8 / b_pyramid=2 / b_adapt=2 / b_bias=0 / direct=1 / weightb=1 / open_gop=0 / weightp=2 / keyint=240 / keyint_min=23 / scenecut=40 / intra_refresh=0 / rc_lookahead=40 / rc=2pass / mbtree=1 / bitrate=1577 / ratetol=1.0 / qcomp=0.60 / qpmin=0 / qpmax=69 / qpstep=4 / cplxblur=20.0 / qblur=0.5 / vbv_maxrate=62500 / vbv_bufsize=78125 / nal_hrd=none / ip_ratio=1.40 / aq=1:1.00
Язык : English
Default : Да
Forced : Нет
Аудио #1
Идентификатор : 2
Формат : AC-3
Формат/Информация : Audio Coding 3
Расширение режима : CM (complete main)
Параметр Endianness формата : Big
Идентификатор кодека : A_AC3
Продолжительность : 2 ч. 39 м.
Вид битрейта : Постоянный
Битрейт : 192 Кбит/сек
Каналы : 2 канала
Расположение каналов : Front: L R
Частота : 48,0 КГц
Частота кадров : 31,250 кадров/сек (1536 spf)
Метод сжатия : С потерями
Размер потока : 219 Мбайт (10%)
Заголовок : двухголосый ВГТРК 1997год
Язык : Russian
Default : Да
Forced : Нет
Аудио #2
Идентификатор : 3
Формат : AC-3
Формат/Информация : Audio Coding 3
Расширение режима : CM (complete main)
Параметр Endianness формата : Big
Идентификатор кодека : A_AC3
Продолжительность : 2 ч. 39 м.
Вид битрейта : Постоянный
Битрейт : 192 Кбит/сек
Каналы : 2 канала
Расположение каналов : Front: L R
Частота : 48,0 КГц
Частота кадров : 31,250 кадров/сек (1536 spf)
Метод сжатия : С потерями
Размер потока : 219 Мбайт (10%)
Заголовок : многоголосый DVD/BD
Язык : Russian
Default : Нет
Forced : Нет
Меню
00:00:00.000 : :Chapter 01
00:02:10.338 : :Chapter 02
00:17:27.629 : :Chapter 03
00:27:35.862 : :Chapter 04
00:37:29.121 : :Chapter 05
00:45:39.069 : :Chapter 06
00:50:22.769 : :Chapter 07
01:00:30.335 : :Chapter 08
01:11:10.474 : :Chapter 09
01:23:13.988 : :Chapter 10
01:32:24.330 : :Chapter 11
01:36:20.983 : :Chapter 12
01:38:51.842 : :Chapter 13
01:45:33.452 : :Chapter 14
01:50:44.971 : :Chapter 15
01:58:08.456 : :Chapter 16
02:02:05.318 : :Chapter 17
02:05:57.466 : :Chapter 18
02:14:44.034 : :Chapter 19
02:23:01.864 : :Chapter 20
02:39:21.301 : :Chapter 21



Показать сообщения:    

Текущее время: 04-Дек 19:23

Часовой пояс: UTC + 3


Вы не можете начинать темы
Вы не можете отвечать на сообщения
Вы не можете редактировать свои сообщения
Вы не можете удалять свои сообщения
Вы не можете голосовать в опросах
Вы не можете прикреплять файлы к сообщениям
Вы не можете скачивать файлы