Аккумулятор / Akumulator 1 (Ян Сверак / Jan Sverák) [1994, Чехия, фэнтези, комедия, HDTVRip] VO


 

[Цитировать]

Аккумулятор / Akumulator 1
Страна: Чехия
Жанр: фэнтези, комедия
Год выпуска: 1994
Продолжительность: 01:42:07
Перевод: Одноголосый закадровый
Cубтитры: нет

Режиссер: Ян Сверак / Jan Sverák
В ролях: Петр Форман, Эдита Брыхта, Зденек Сверак, Болек Поливка, Ладислав Смоляк, Матей Форман, Маркета Фрослова, Иван Выскочил, Мариан Лабуда
Описание: Главный герой фильма землемер Олда, которого играет сын Милоша Формана Петр Форман, страдает роковой потерей энергии. Причина в его двойнике-тени, который обитает в мире, простирающемся по ту сторону экрана телевизора. Только любовь помогает молодому герою избавиться от сетей телевизионного демона и стать на собственные ноги...
Качество видео: HDTVRip
Формат видео: AVI
Видео: 656x368 (1.78:1), 25 fps, XviD build 73 ~880 kbps avg, 0.15 bit/pixel
Аудио: 48 kHz, MPEG Layer 3, 2 ch, ~128.00 kbps avg

MediaInfo

Общее
Полное имя : H:\Akumulator.1.1994.hdtvrip_[745]_[teko].avi
Формат : AVI
Формат/Информация : Audio Video Interleave
Размер файла : 744 Мбайт
Продолжительность : 1 ч. 42 м.
Общий поток : 1019 Кбит/сек
Программа кодирования : VirtualDubMod 1.5.10.3 | www.virtualdub-fr.org || (build 2550/release)
Библиотека кодирования : VirtualDubMod build 2550/release
Видео
Идентификатор : 0
Формат : MPEG-4 Visual
Профиль формата : Advanced Simple@L5
Параметр BVOP формата : 2
Параметр QPel формата : Нет
Параметр GMC формата : Без точки перехода
Параметр матрицы формата : Выборочная
Идентификатор кодека : XVID
Идентификатор кодека/Подсказка : XviD
Продолжительность : 1 ч. 42 м.
Битрейт : 881 Кбит/сек
Ширина : 656 пикселей
Высота : 368 пикселей
Соотношение сторон : 16:9
Частота кадров : 25,000 кадров/сек
Цветовое пространство : YUV
Субдискретизация насыщенности : 4:2:0
Битовая глубина : 8 бит
Тип развёртки : Прогрессивная
Метод сжатия : С потерями
Бит/(Пиксели*Кадры) : 0.146
Размер потока : 643 Мбайт (86%)
Библиотека кодирования : XviD 73
Аудио
Идентификатор : 1
Формат : MPEG Audio
Версия формата : Version 1
Профиль формата : Layer 3
Идентификатор кодека : 55
Идентификатор кодека/Подсказка : MP3
Продолжительность : 1 ч. 42 м.
Вид битрейта : Постоянный
Битрейт : 128 Кбит/сек
Каналы : 2 канала
Частота : 48,0 КГц
Метод сжатия : С потерями
Размер потока : 93,5 Мбайт (13%)
Выравнивание : Соединение по промежуткам
Продолжительность промежутка : 40 мс. (1,00 видеокадр)
Время предзагрузки промежутка : 504 мс.
Библиотека кодирования : LAME3.98r
Настройки программы : -m s -V 4 -q 2 -lowpass 17 -b 128



Показать сообщения:    

Текущее время: 07-Дек 21:25

Часовой пояс: UTC + 3


Вы не можете начинать темы
Вы не можете отвечать на сообщения
Вы не можете редактировать свои сообщения
Вы не можете удалять свои сообщения
Вы не можете голосовать в опросах
Вы не можете прикреплять файлы к сообщениям
Вы не можете скачивать файлы